  0
SECTION
  2
HEADER
  9
$ACADVER
  1
AC1015
  9
$ACADMAINTVER
 70
     6
  9
$DWGCODEPAGE
  3
ANSI_1252
  9
$INSBASE
 10
0.0
 20
0.0
 30
0.0
  9
$EXTMIN
 10
-210.0000000000001
 20
0.0
 30
0.0
  9
$EXTMAX
 10
0.0
 20
297.0000000000001
 30
0.0
  9
$LIMMIN
 10
0.0
 20
0.0
  9
$LIMMAX
 10
12.0
 20
9.0
  9
$ORTHOMODE
 70
     0
  9
$REGENMODE
 70
     1
  9
$FILLMODE
 70
     1
  9
$QTEXTMODE
 70
     0
  9
$MIRRTEXT
 70
     1
  9
$LTSCALE
 40
1.0
  9
$ATTMODE
 70
     1
  9
$TEXTSIZE
 40
0.2
  9
$TRACEWID
 40
0.05
  9
$TEXTSTYLE
  7
Standard
  9
$CLAYER
  8
0
  9
$CELTYPE
  6
ByLayer
  9
$CECOLOR
 62
   256
  9
$CELTSCALE
 40
1.0
  9
$DISPSILH
 70
     0
  9
$DIMSCALE
 40
1.0
  9
$DIMASZ
 40
0.18
  9
$DIMEXO
 40
0.0625
  9
$DIMDLI
 40
0.38
  9
$DIMRND
 40
0.0
  9
$DIMDLE
 40
0.0
  9
$DIMEXE
 40
0.18
  9
$DIMTP
 40
0.0
  9
$DIMTM
 40
0.0
  9
$DIMTXT
 40
0.18
  9
$DIMCEN
 40
0.09
  9
$DIMTSZ
 40
0.0
  9
$DIMTOL
 70
     0
  9
$DIMLIM
 70
     0
  9
$DIMTIH
 70
     1
  9
$DIMTOH
 70
     1
  9
$DIMSE1
 70
     0
  9
$DIMSE2
 70
     0
  9
$DIMTAD
 70
     0
  9
$DIMZIN
 70
     0
  9
$DIMBLK
  1

  9
$DIMASO
 70
     1
  9
$DIMSHO
 70
     1
  9
$DIMPOST
  1

  9
$DIMAPOST
  1

  9
$DIMALT
 70
     0
  9
$DIMALTD
 70
     2
  9
$DIMALTF
 40
25.4
  9
$DIMLFAC
 40
1.0
  9
$DIMTOFL
 70
     0
  9
$DIMTVP
 40
0.0
  9
$DIMTIX
 70
     0
  9
$DIMSOXD
 70
     0
  9
$DIMSAH
 70
     0
  9
$DIMBLK1
  1

  9
$DIMBLK2
  1

  9
$DIMSTYLE
  2
Standard
  9
$DIMCLRD
 70
     0
  9
$DIMCLRE
 70
     0
  9
$DIMCLRT
 70
     0
  9
$DIMTFAC
 40
1.0
  9
$DIMGAP
 40
0.09
  9
$DIMJUST
 70
     0
  9
$DIMSD1
 70
     0
  9
$DIMSD2
 70
     0
  9
$DIMTOLJ
 70
     1
  9
$DIMTZIN
 70
     0
  9
$DIMALTZ
 70
     0
  9
$DIMALTTZ
 70
     0
  9
$DIMUPT
 70
     0
  9
$DIMDEC
 70
     4
  9
$DIMTDEC
 70
     4
  9
$DIMALTU
 70
     2
  9
$DIMALTTD
 70
     2
  9
$DIMTXSTY
  7
Standard
  9
$DIMAUNIT
 70
     0
  9
$DIMADEC
 70
     0
  9
$DIMALTRND
 40
0.0
  9
$DIMAZIN
 70
     0
  9
$DIMDSEP
 70
    46
  9
$DIMATFIT
 70
     3
  9
$DIMFRAC
 70
     0
  9
$DIMLDRBLK
  1

  9
$DIMLUNIT
 70
     2
  9
$DIMLWD
 70
    -2
  9
$DIMLWE
 70
    -2
  9
$DIMTMOVE
 70
     0
  9
$LUNITS
 70
     2
  9
$LUPREC
 70
     4
  9
$SKETCHINC
 40
0.1
  9
$FILLETRAD
 40
0.5
  9
$AUNITS
 70
     0
  9
$AUPREC
 70
     0
  9
$MENU
  1
.
  9
$ELEVATION
 40
0.0
  9
$PELEVATION
 40
0.0
  9
$THICKNESS
 40
0.0
  9
$LIMCHECK
 70
     0
  9
$CHAMFERA
 40
0.5
  9
$CHAMFERB
 40
0.5
  9
$CHAMFERC
 40
1.0
  9
$CHAMFERD
 40
0.0
  9
$SKPOLY
 70
     0
  9
$TDCREATE
 40
2456997.49113294
  9
$TDUCREATE
 40
2456997.449466273
  9
$TDUPDATE
 40
2456997.491133125
  9
$TDUUPDATE
 40
2456997.449466459
  9
$TDINDWG
 40
0.0000000116
  9
$TDUSRTIMER
 40
0.0000000116
  9
$USRTIMER
 70
     1
  9
$ANGBASE
 50
0.0
  9
$ANGDIR
 70
     0
  9
$PDMODE
 70
     0
  9
$PDSIZE
 40
0.0
  9
$PLINEWID
 40
0.0
  9
$SPLFRAME
 70
     0
  9
$SPLINETYPE
 70
     6
  9
$SPLINESEGS
 70
     8
  9
$HANDSEED
  5
357
  9
$SURFTAB1
 70
     6
  9
$SURFTAB2
 70
     6
  9
$SURFTYPE
 70
     6
  9
$SURFU
 70
     6
  9
$SURFV
 70
     6
  9
$UCSBASE
  2

  9
$UCSNAME
  2

  9
$UCSORG
 10
0.0
 20
0.0
 30
0.0
  9
$UCSXDIR
 10
1.0
 20
0.0
 30
0.0
  9
$UCSYDIR
 10
0.0
 20
1.0
 30
0.0
  9
$UCSORTHOREF
  2

  9
$UCSORTHOVIEW
 70
     0
  9
$UCSORGTOP
 10
0.0
 20
0.0
 30
0.0
  9
$UCSORGBOTTOM
 10
0.0
 20
0.0
 30
0.0
  9
$UCSORGLEFT
 10
0.0
 20
0.0
 30
0.0
  9
$UCSORGRIGHT
 10
0.0
 20
0.0
 30
0.0
  9
$UCSORGFRONT
 10
0.0
 20
0.0
 30
0.0
  9
$UCSORGBACK
 10
0.0
 20
0.0
 30
0.0
  9
$PUCSBASE
  2

  9
$PUCSNAME
  2

  9
$PUCSORG
 10
0.0
 20
0.0
 30
0.0
  9
$PUCSXDIR
 10
1.0
 20
0.0
 30
0.0
  9
$PUCSYDIR
 10
0.0
 20
1.0
 30
0.0
  9
$PUCSORTHOREF
  2

  9
$PUCSORTHOVIEW
 70
     0
  9
$PUCSORGTOP
 10
0.0
 20
0.0
 30
0.0
  9
$PUCSORGBOTTOM
 10
0.0
 20
0.0
 30
0.0
  9
$PUCSORGLEFT
 10
0.0
 20
0.0
 30
0.0
  9
$PUCSORGRIGHT
 10
0.0
 20
0.0
 30
0.0
  9
$PUCSORGFRONT
 10
0.0
 20
0.0
 30
0.0
  9
$PUCSORGBACK
 10
0.0
 20
0.0
 30
0.0
  9
$USERI1
 70
     0
  9
$USERI2
 70
     0
  9
$USERI3
 70
     0
  9
$USERI4
 70
     0
  9
$USERI5
 70
     0
  9
$USERR1
 40
18.1
  9
$USERR2
 40
0.0
  9
$USERR3
 40
0.0
  9
$USERR4
 40
0.0
  9
$USERR5
 40
0.0
  9
$WORLDVIEW
 70
     1
  9
$SHADEDGE
 70
     3
  9
$SHADEDIF
 70
    70
  9
$TILEMODE
 70
     1
  9
$MAXACTVP
 70
    64
  9
$PINSBASE
 10
0.0
 20
0.0
 30
0.0
  9
$PLIMCHECK
 70
     0
  9
$PEXTMIN
 10
1.00000000000000E+20
 20
1.00000000000000E+20
 30
1.00000000000000E+20
  9
$PEXTMAX
 10
-1.00000000000000E+20
 20
-1.00000000000000E+20
 30
-1.00000000000000E+20
  9
$PLIMMIN
 10
0.0
 20
0.0
  9
$PLIMMAX
 10
12.0
 20
9.0
  9
$UNITMODE
 70
     0
  9
$VISRETAIN
 70
     1
  9
$PLINEGEN
 70
     0
  9
$PSLTSCALE
 70
     1
  9
$TREEDEPTH
 70
  3020
  9
$CMLSTYLE
  2
Standard
  9
$CMLJUST
 70
     0
  9
$CMLSCALE
 40
1.0
  9
$PROXYGRAPHICS
 70
     1
  9
$MEASUREMENT
 70
     1
  9
$CELWEIGHT
370
    -1
  9
$ENDCAPS
280
     0
  9
$JOINSTYLE
280
     0
  9
$LWDISPLAY
290
     0
  9
$INSUNITS
 70
     4
  9
$HYPERLINKBASE
  1

  9
$STYLESHEET
  1

  9
$XEDIT
290
     1
  9
$CEPSNTYPE
380
     0
  9
$PSTYLEMODE
290
     1
  9
$FINGERPRINTGUID
  2
{117C0508-D09A-4E88-9E71-EFF19AD7CFF5}
  9
$VERSIONGUID
  2
{FAEB1C32-E019-11D5-929B-00C0DF256EC4}
  9
$EXTNAMES
290
     1
  9
$PSVPSCALE
 40
0.0
  9
$OLESTARTUP
290
     0
  0
ENDSEC
  0
SECTION
  2
CLASSES
  0
CLASS
  1
ACDBDICTIONARYWDFLT
  2
AcDbDictionaryWithDefault
  3
ObjectDBX Classes
 90
        0
280
     0
281
     0
  0
CLASS
  1
VISUALSTYLE
  2
AcDbVisualStyle
  3
ObjectDBX Classes
 90
     4095
280
     0
281
     0
  0
CLASS
  1
MATERIAL
  2
AcDbMaterial
  3
ObjectDBX Classes
 90
     1153
280
     0
281
     0
  0
CLASS
  1
DICTIONARYVAR
  2
AcDbDictionaryVar
  3
ObjectDBX Classes
 90
        0
280
     0
281
     0
  0
CLASS
  1
ACDBPLACEHOLDER
  2
AcDbPlaceHolder
  3
ObjectDBX Classes
 90
        0
280
     0
281
     0
  0
CLASS
  1
LAYOUT
  2
AcDbLayout
  3
ObjectDBX Classes
 90
        0
280
     0
281
     0
  0
ENDSEC
  0
SECTION
  2
TABLES
  0
TABLE
  2
VPORT
  5
8
330
0
100
AcDbSymbolTable
 70
     1
  0
VPORT
  5
29
330
8
100
AcDbSymbolTableRecord
100
AcDbViewportTableRecord
  2
*Active
 70
     0
 10
0.0
 20
0.0
 11
1.0
 21
1.0
 12
-105.0000000000001
 22
148.5000000000001
 13
0.0
 23
0.0
 14
0.5
 24
0.5
 15
0.5
 25
0.5
 16
0.0
 26
0.0
 36
1.0
 17
0.0
 27
0.0
 37
0.0
 40
326.7000000000002
 41
1.60267857142857
 42
50.0
 43
0.0
 44
0.0
 50
0.0
 51
0.0
 71
     0
 72
   100
 73
     1
 74
     3
 75
     0
 76
     0
 77
     0
 78
     0
281
     0
 65
     1
110
0.0
120
0.0
130
0.0
111
1.0
121
0.0
131
0.0
112
0.0
122
1.0
132
0.0
 79
     0
146
0.0
  0
ENDTAB
  0
TABLE
  2
LTYPE
  5
5
330
0
100
AcDbSymbolTable
 70
     8
  0
LTYPE
  5
14
330
5
100
AcDbSymbolTableRecord
100
AcDbLinetypeTableRecord
  2
ByBlock
 70
     0
  3

 72
    65
 73
     0
 40
0.0
  0
LTYPE
  5
15
330
5
100
AcDbSymbolTableRecord
100
AcDbLinetypeTableRecord
  2
ByLayer
 70
     0
  3

 72
    65
 73
     0
 40
0.0
  0
LTYPE
  5
16
330
5
100
AcDbSymbolTableRecord
100
AcDbLinetypeTableRecord
  2
Continuous
 70
     0
  3
Solid line
 72
    65
 73
     0
 40
0.0
  0
LTYPE
  5
3F
330
5
100
AcDbSymbolTableRecord
100
AcDbLinetypeTableRecord
  2
DASHED
 70
     0
  3
Dashed
 72
    65
 73
     2
 40
15.0
 49
7.0
 74
     0
 49
-8.0
 74
     0
  0
LTYPE
  5
40
330
5
100
AcDbSymbolTableRecord
100
AcDbLinetypeTableRecord
  2
DOTTED
 70
     0
  3
Dotted
 72
    65
 73
     2
 40
1.0
 49
0.0
 74
     0
 49
-1.0
 74
     0
  0
LTYPE
  5
41
330
5
100
AcDbSymbolTableRecord
100
AcDbLinetypeTableRecord
  2
DOT_CENTER
 70
     0
  3
Dot_Center
 72
    65
 73
     4
 40
14.0
 49
12.0
 74
     0
 49
-1.0
 74
     0
 49
0.0
 74
     0
 49
-1.0
 74
     0
  0
LTYPE
  5
42
330
5
100
AcDbSymbolTableRecord
100
AcDbLinetypeTableRecord
  2
LONG_DASHED
 70
     0
  3
Long_Dashed
 72
    65
 73
     2
 40
15.0
 49
10.0
 74
     0
 49
-5.0
 74
     0
  0
LTYPE
  5
43
330
5
100
AcDbSymbolTableRecord
100
AcDbLinetypeTableRecord
  2
DASH_CENTER
 70
     0
  3
Dash_Center
 72
    65
 73
     4
 40
14.0
 49
11.0
 74
     0
 49
-1.0
 74
     0
 49
1.0
 74
     0
 49
-1.0
 74
     0
  0
LTYPE
  5
44
330
5
100
AcDbSymbolTableRecord
100
AcDbLinetypeTableRecord
  2
PHANTOM
 70
     0
  3
Phantom
 72
    65
 73
     6
 40
13.0
 49
10.0
 74
     0
 49
-1.0
 74
     0
 49
0.0
 74
     0
 49
-1.0
 74
     0
 49
0.0
 74
     0
 49
-1.0
 74
     0
  0
LTYPE
  5
45
330
5
100
AcDbSymbolTableRecord
100
AcDbLinetypeTableRecord
  2
CENTER_DASH_DASH
 70
     0
  3
Center_Dash_Dash
 72
    65
 73
     6
 40
14.0
 49
9.0
 74
     0
 49
-1.0
 74
     0
 49
1.0
 74
     0
 49
-1.0
 74
     0
 49
1.0
 74
     0
 49
-1.0
 74
     0
  0
ENDTAB
  0
TABLE
  2
LAYER
  5
2
330
0
100
AcDbSymbolTable
 70
     2
  0
LAYER
  5
10
330
2
100
AcDbSymbolTableRecord
100
AcDbLayerTableRecord
  2
0
 70
     0
 62
     7
  6
Continuous
370
    -3
390
F
  0
LAYER
  5
46
330
2
100
AcDbSymbolTableRecord
100
AcDbLayerTableRecord
  2
1
 70
     0
 62
     7
  6
Continuous
370
    -3
390
F
  0
ENDTAB
  0
TABLE
  2
STYLE
  5
3
330
0
100
AcDbSymbolTable
 70
     4
  0
STYLE
  5
11
330
3
100
AcDbSymbolTableRecord
100
AcDbTextStyleTableRecord
  2
Standard
 70
     0
 40
0.0
 41
1.0
 50
0.0
 71
     0
 42
0.2
  3
txt
  4

  0
STYLE
  5
2FC
330
3
100
AcDbSymbolTableRecord
100
AcDbTextStyleTableRecord
  2
CONVERTER_11
 70
     0
 40
0.0
 41
1.2
 50
0.0
 71
     0
 42
0.2
  3
ARIAL.TTF
  4

  0
STYLE
  5
302
330
3
100
AcDbSymbolTableRecord
100
AcDbTextStyleTableRecord
  2
CONVERTER_12
 70
     0
 40
0.0
 41
1.44
 50
0.0
 71
     0
 42
0.2
  3
ARIAL.TTF
  4

  0
STYLE
  5
30C
330
3
100
AcDbSymbolTableRecord
100
AcDbTextStyleTableRecord
  2
CONVERTER_13
 70
     0
 40
0.0
 41
0.95
 50
0.0
 71
     0
 42
0.2
  3
simplex.shx
  4

  0
ENDTAB
  0
TABLE
  2
VIEW
  5
6
330
0
100
AcDbSymbolTable
 70
     0
  0
ENDTAB
  0
TABLE
  2
UCS
  5
7
330
0
100
AcDbSymbolTable
 70
     0
  0
ENDTAB
  0
TABLE
  2
APPID
  5
9
330
0
100
AcDbSymbolTable
 70
     1
  0
APPID
  5
12
330
9
100
AcDbSymbolTableRecord
100
AcDbRegAppTableRecord
  2
ACAD
 70
     0
  0
ENDTAB
  0
TABLE
  2
DIMSTYLE
  5
A
330
0
100
AcDbSymbolTable
 70
     4
100
AcDbDimStyleTable
  0
DIMSTYLE
105
27
330
A
100
AcDbSymbolTableRecord
100
AcDbDimStyleTableRecord
  2
Standard
 70
     0
178
     0
340
11
  0
DIMSTYLE
105
310
102
{ACAD_REACTORS
330
311
102
}
330
A
100
AcDbSymbolTableRecord
100
AcDbDimStyleTableRecord
  2
ME10_DIM_10
 70
     0
 41
3.0
 42
0.5
 44
1.0
 73
     0
 74
     0
 77
     1
 78
     8
140
3.0
147
2.0
172
     1
173
     1
174
     1
175
     1
176
     2
177
     2
271
     2
178
     4
271
     2
340
30C
  0
DIMSTYLE
105
31B
102
{ACAD_REACTORS
330
31C
102
}
330
A
100
AcDbSymbolTableRecord
100
AcDbDimStyleTableRecord
  2
ME10_DIM_11
 70
     0
 41
3.0
 42
0.5
 44
1.0
 73
     0
 74
     0
 77
     1
 78
     8
140
3.0
147
2.0
172
     1
173
     1
174
     1
175
     1
176
     2
177
     2
271
     2
178
     4
271
     2
340
30C
  0
DIMSTYLE
105
326
102
{ACAD_REACTORS
330
327
102
}
330
A
100
AcDbSymbolTableRecord
100
AcDbDimStyleTableRecord
  2
ME10_DIM_12
 70
     0
 41
3.0
 42
0.5
 44
1.0
 73
     0
 74
     0
 77
     1
 78
     8
140
3.0
147
2.0
172
     1
173
     1
174
     1
175
     1
176
     2
177
     2
271
     2
178
     4
271
     2
340
30C
  0
ENDTAB
  0
TABLE
  2
BLOCK_RECORD
  5
1
330
0
100
AcDbSymbolTable
 70
     4
  0
BLOCK_RECORD
  5
1F
330
1
100
AcDbSymbolTableRecord
100
AcDbBlockTableRecord
  2
*Model_Space
340
22
  0
BLOCK_RECORD
  5
1B
330
1
100
AcDbSymbolTableRecord
100
AcDbBlockTableRecord
  2
*Paper_Space
340
1E
  0
BLOCK_RECORD
  5
23
330
1
100
AcDbSymbolTableRecord
100
AcDbBlockTableRecord
  2
*Paper_Space0
340
26
  0
BLOCK_RECORD
  5
306
330
1
100
AcDbSymbolTableRecord
100
AcDbBlockTableRecord
  2
*D1
340
0
  0
BLOCK_RECORD
  5
312
330
1
100
AcDbSymbolTableRecord
100
AcDbBlockTableRecord
  2
*D2
340
0
  0
BLOCK_RECORD
  5
31D
330
1
100
AcDbSymbolTableRecord
100
AcDbBlockTableRecord
  2
*D3
340
0
  0
ENDTAB
  0
ENDSEC
  0
SECTION
  2
BLOCKS
  0
BLOCK
  5
20
330
1F
100
AcDbEntity
  8
0
100
AcDbBlockBegin
  2
*Model_Space
 70
     0
 10
0.0
 20
0.0
 30
0.0
  3
*Model_Space
  1

  0
ENDBLK
  5
21
330
1F
100
AcDbEntity
  8
0
100
AcDbBlockEnd
  0
BLOCK
  5
1C
330
1B
100
AcDbEntity
 67
     1
  8
0
100
AcDbBlockBegin
  2
*Paper_Space
 70
     0
 10
0.0
 20
0.0
 30
0.0
  3
*Paper_Space
  1

  0
ENDBLK
  5
1D
330
1B
100
AcDbEntity
 67
     1
  8
0
100
AcDbBlockEnd
  0
BLOCK
  5
24
330
23
100
AcDbEntity
  8
0
100
AcDbBlockBegin
  2
*Paper_Space0
 70
     0
 10
0.0
 20
0.0
 30
0.0
  3
*Paper_Space0
  1

  0
ENDBLK
  5
25
330
23
100
AcDbEntity
  8
0
100
AcDbBlockEnd
  0
BLOCK
  5
30E
330
306
100
AcDbEntity
  8
0
100
AcDbBlockBegin
  2
*D1
 70
     1
 10
0.0
 20
0.0
 30
0.0
  3
*D1
  1

  0
LINE
  5
307
330
306
100
AcDbEntity
  8
1
  6
Continuous
 62
     2
100
AcDbLine
 10
-27.8692213784585
 20
187.3965957437744
 30
0.0
 11
-27.8692213784585
 21
153.0965957437749
 31
0.0
  0
LINE
  5
308
330
306
100
AcDbEntity
  8
1
  6
Continuous
 62
     2
100
AcDbLine
 10
-41.4899443859905
 20
187.3965957437744
 30
0.0
 11
-26.8692213784585
 21
187.3965957437744
 31
0.0
  0
LINE
  5
309
330
306
100
AcDbEntity
  8
1
  6
Continuous
 62
     2
100
AcDbLine
 10
-43.4899443859896
 20
153.0965957437749
 30
0.0
 11
-26.8692213784585
 21
153.0965957437749
 31
0.0
  0
SOLID
  5
30A
330
306
100
AcDbEntity
  8
1
 62
     2
100
AcDbTrace
 10
-27.47426388569631
 20
184.3965957437744
 30
0.0
 11
-28.26417887122069
 21
184.3965957437744
 31
0.0
 12
-27.8692213784585
 22
187.3965957437744
 32
0.0
 13
-27.8692213784585
 23
187.3965957437744
 33
0.0
  0
SOLID
  5
30B
330
306
100
AcDbEntity
  8
1
 62
     2
100
AcDbTrace
 10
-28.26417887122069
 20
156.0965957437749
 30
0.0
 11
-27.47426388569631
 21
156.0965957437749
 31
0.0
 12
-27.8692213784585
 22
153.0965957437749
 32
0.0
 13
-27.8692213784585
 23
153.0965957437749
 33
0.0
  0
MTEXT
  5
30D
330
306
100
AcDbEntity
  8
1
 62
     4
100
AcDbMText
 10
-30.1692213784585
 20
166.1215957437746
 30
0.0
 40
3.0
 41
0.0
 71
     7
 72
     1
  1
34,3
  7
CONVERTER_13
 11
0.0
 21
1.0
 31
0.0
 73
     1
 44
0.60024009603842
  0
ENDBLK
  5
30F
330
306
100
AcDbEntity
  8
0
100
AcDbBlockEnd
  0
BLOCK
  5
319
330
312
100
AcDbEntity
  8
0
100
AcDbBlockBegin
  2
*D2
 70
     1
 10
0.0
 20
0.0
 30
0.0
  3
*D2
  1

  0
LINE
  5
313
330
312
100
AcDbEntity
  8
1
  6
Continuous
 62
     2
100
AcDbLine
 10
-73.98994438598994
 20
199.70414235706
 30
0.0
 11
-43.98994438598919
 21
199.70414235706
 31
0.0
  0
LINE
  5
314
330
312
100
AcDbEntity
  8
1
  6
Continuous
 62
     2
100
AcDbLine
 10
-73.98994438598994
 20
187.8965957437743
 30
0.0
 11
-73.98994438598994
 21
200.70414235706
 31
0.0
  0
LINE
  5
315
330
312
100
AcDbEntity
  8
1
  6
Continuous
 62
     2
100
AcDbLine
 10
-43.98994438598919
 20
187.8965957437743
 30
0.0
 11
-43.98994438598919
 21
200.70414235706
 31
0.0
  0
SOLID
  5
316
330
312
100
AcDbEntity
  8
1
 62
     2
100
AcDbTrace
 10
-70.98994438598994
 20
200.0990998498222
 30
0.0
 11
-70.98994438598994
 21
199.3091848642978
 31
0.0
 12
-73.98994438598994
 22
199.70414235706
 32
0.0
 13
-73.98994438598994
 23
199.70414235706
 33
0.0
  0
SOLID
  5
317
330
312
100
AcDbEntity
  8
1
 62
     2
100
AcDbTrace
 10
-46.98994438598919
 20
199.3091848642978
 30
0.0
 11
-46.98994438598919
 21
200.0990998498222
 31
0.0
 12
-43.98994438598919
 22
199.70414235706
 32
0.0
 13
-43.98994438598919
 23
199.70414235706
 33
0.0
  0
MTEXT
  5
318
330
312
100
AcDbEntity
  8
1
 62
     4
100
AcDbMText
 10
-61.23994438598957
 20
201.70414235706
 30
0.0
 40
3.0
 41
0.0
 71
     7
 72
     1
  1
30
  7
CONVERTER_13
 11
0.9999999999970619
 21
2.424068405545306E-6
 31
0.0
 73
     1
 44
0.60024009603842
  0
ENDBLK
  5
31A
330
312
100
AcDbEntity
  8
0
100
AcDbBlockEnd
  0
BLOCK
  5
324
330
31D
100
AcDbEntity
  8
0
100
AcDbBlockBegin
  2
*D3
 70
     1
 10
0.0
 20
0.0
 30
0.0
  3
*D3
  1

  0
LINE
  5
31E
330
31D
100
AcDbEntity
  8
1
  6
Continuous
 62
     2
100
AcDbLine
 10
-149.909945026655
 20
199.935355892649
 30
0.0
 11
-135.209945026655
 21
199.935355892649
 31
0.0
  0
LINE
  5
31F
330
31D
100
AcDbEntity
  8
1
  6
Continuous
 62
     2
100
AcDbLine
 10
-149.909945026655
 20
187.896595743774
 30
0.0
 11
-149.909945026655
 21
200.935355892649
 31
0.0
  0
LINE
  5
320
330
31D
100
AcDbEntity
  8
1
  6
Continuous
 62
     2
100
AcDbLine
 10
-135.209945026655
 20
187.8965957437743
 30
0.0
 11
-135.209945026655
 21
200.935355892649
 31
0.0
  0
SOLID
  5
321
330
31D
100
AcDbEntity
  8
1
 62
     2
100
AcDbTrace
 10
-146.909945026655
 20
200.3303133854112
 30
0.0
 11
-146.909945026655
 21
199.5403983998868
 31
0.0
 12
-149.909945026655
 22
199.935355892649
 32
0.0
 13
-149.909945026655
 23
199.935355892649
 33
0.0
  0
SOLID
  5
322
330
31D
100
AcDbEntity
  8
1
 62
     2
100
AcDbTrace
 10
-138.209945026655
 20
199.5403983998868
 30
0.0
 11
-138.209945026655
 21
200.3303133854112
 31
0.0
 12
-135.209945026655
 22
199.935355892649
 32
0.0
 13
-135.209945026655
 23
199.935355892649
 33
0.0
  0
MTEXT
  5
323
330
31D
100
AcDbEntity
  8
1
 62
     4
100
AcDbMText
 10
-146.234945026655
 20
202.235355892649
 30
0.0
 40
3.0
 41
0.0
 71
     7
 72
     1
  1
14,7
  7
CONVERTER_13
 11
0.9999999999970619
 21
2.424068405545306E-6
 31
0.0
 73
     1
 44
0.60024009603842
  0
ENDBLK
  5
325
330
31D
100
AcDbEntity
  8
0
100
AcDbBlockEnd
  0
ENDSEC
  0
SECTION
  2
ENTITIES
  0
LINE
  5
47
330
1F
100
AcDbEntity
  8
0
  6
Continuous
 62
     7
100
AcDbLine
 10
-37.37437983550476
 20
271.6380420926799
 30
0.0
 11
-35.92481093407233
 21
272.3628265433961
 31
0.0
  0
LINE
  5
48
330
1F
100
AcDbEntity
  8
0
  6
Continuous
 62
     7
100
AcDbLine
 10
-24.04541701013872
 20
266.4231295814291
 30
0.0
 11
-24.04541701013866
 21
240.4423674678953
 31
0.0
  0
LINE
  5
49
330
1F
100
AcDbEntity
  8
0
  6
Continuous
 62
     7
100
AcDbLine
 10
-31.90874902121888
 20
255.1479148338594
 30
0.0
 11
-31.90874902121888
 21
255.4589906150974
 31
0.0
  0
LINE
  5
4A
330
1F
100
AcDbEntity
  8
0
  6
Continuous
 62
     7
100
AcDbLine
 10
-33.21691002864391
 20
253.8010403875943
 30
0.0
 11
-32.47441290660049
 21
254.172288948616
 31
0.0
  0
LINE
  5
4B
330
1F
100
AcDbEntity
  8
0
  6
Continuous
 62
     7
100
AcDbLine
 10
-24.91485374671223
 20
252.2874997749387
 30
0.0
 11
-24.91485374671197
 21
261.8491993333867
 31
0.0
  0
LINE
  5
4C
330
1F
100
AcDbEntity
  8
0
  6
Continuous
 62
     2
100
AcDbLine
 10
-24.91485374671197
 20
261.8491993333867
 30
0.0
 11
-25.35634742836061
 21
262.0614487066577
 31
0.0
  0
LINE
  5
4D
330
1F
100
AcDbEntity
  8
0
  6
Continuous
 62
     7
100
AcDbLine
 10
-25.26839367507549
 20
262.1054255833003
 30
0.0
 11
-25.79875876276279
 21
261.8402430394566
 31
0.0
  0
LINE
  5
4E
330
1F
100
AcDbEntity
  8
0
  6
Continuous
 62
     7
100
AcDbLine
 10
-29.08791335610545
 20
263.2267546560308
 30
0.0
 11
-26.15234086449506
 21
261.8154696310463
 31
0.0
  0
LINE
  5
4F
330
1F
100
AcDbEntity
  8
0
  6
Continuous
 62
     2
100
AcDbLine
 10
-26.36442264814431
 20
263.0297136392679
 30
0.0
 11
-27.95379990207961
 21
263.7938113830438
 31
0.0
  0
LINE
  5
50
330
1F
100
AcDbEntity
  8
0
  6
Continuous
 62
     7
100
AcDbLine
 10
-26.3644226481444
 20
262.2502050393185
 30
0.0
 11
-26.36442264814431
 21
263.0297136392679
 31
0.0
  0
LINE
  5
51
330
1F
100
AcDbEntity
  8
0
  6
Continuous
 62
     7
100
AcDbLine
 10
-32.68654494095651
 20
258.3963499503598
 30
0.0
 11
-33.21691002864388
 21
258.1311674065162
 31
0.0
  0
LINE
  5
52
330
1F
100
AcDbEntity
  8
0
  6
Continuous
 62
     7
100
AcDbLine
 10
-33.5704499570074
 20
257.521401228239
 30
0.0
 11
-33.5704499570074
 21
255.7539303038511
 31
0.0
  0
LINE
  5
53
330
1F
100
AcDbEntity
  8
0
  6
Continuous
 62
     2
100
AcDbLine
 10
-33.2169100286439
 20
255.4977040539374
 30
0.0
 11
-33.56459088386657
 21
255.6783541513411
 31
0.0
  0
LINE
  5
54
330
1F
100
AcDbEntity
  8
0
  6
Continuous
 62
     2
100
AcDbLine
 10
-32.47441290660049
 20
255.8689526149591
 30
0.0
 11
-33.5704499570074
 21
256.4384380983839
 31
0.0
  0
LINE
  5
55
330
1F
100
AcDbEntity
  8
0
  6
Continuous
 62
     7
100
AcDbLine
 10
-32.1208810555749
 20
260.1514844355529
 30
0.0
 11
-32.1208810555749
 21
259.3719758356032
 31
0.0
  0
LINE
  5
56
330
1F
100
AcDbEntity
  8
0
  6
Continuous
 62
     7
100
AcDbLine
 10
-27.63716639025296
 20
263.9521281389571
 30
0.0
 11
-30.84813731346627
 21
262.3466426773505
 31
0.0
  0
LINE
  5
57
330
1F
100
AcDbEntity
  8
0
  6
Continuous
 62
     2
100
AcDbLine
 10
-28.74860620861388
 20
263.3964082297766
 30
0.0
 11
-26.3644226481444
 21
262.2502050393185
 31
0.0
  0
LINE
  5
58
330
1F
100
AcDbEntity
  8
0
  6
Continuous
 62
     7
100
AcDbLine
 10
-34.43988669358097
 20
261.225894739708
 30
0.0
 11
-24.04541701013872
 21
266.4231295814291
 31
0.0
  0
LINE
  5
59
330
1F
100
AcDbEntity
  8
0
  6
Continuous
 62
     7
100
AcDbLine
 10
-24.04541701013872
 20
266.4231295814291
 30
0.0
 11
-35.92481093407233
 21
272.3628265433961
 31
0.0
  0
LINE
  5
5A
330
1F
100
AcDbEntity
  8
0
  6
Continuous
 62
     7
100
AcDbLine
 10
-46.31928061751458
 20
267.165591701675
 30
0.0
 11
-44.86971171608217
 21
267.8903761523912
 31
0.0
  0
LINE
  5
5B
330
1F
100
AcDbEntity
  8
0
  6
Continuous
 62
     7
100
AcDbLine
 10
-49.03661647191335
 20
277.5420229092487
 30
0.0
 11
-49.03661647191338
 21
275.8099721016799
 31
0.0
  0
LINE
  5
5C
330
1F
100
AcDbEntity
  8
0
  6
Continuous
 62
     2
100
AcDbLine
 10
-49.1830630813201
 20
277.3652462139521
 30
0.0
 11
-49.1830630813201
 21
275.6331954063832
 31
0.0
  0
LINE
  5
5D
330
1F
100
AcDbEntity
  8
0
  6
Continuous
 62
     7
100
AcDbLine
 10
-49.1830630813201
 20
277.3652462139521
 30
0.0
 11
-52.86001834349011
 21
275.5267685828671
 31
0.0
  0
LINE
  5
5E
330
1F
100
AcDbEntity
  8
0
  6
Continuous
 62
     2
100
AcDbLine
 10
-53.56712512467671
 20
273.794717775299
 30
0.0
 11
-53.56712512467671
 21
275.5267685828671
 31
0.0
  0
LINE
  5
5F
330
1F
100
AcDbEntity
  8
0
  6
Continuous
 62
     7
100
AcDbLine
 10
-55.68844546823641
 20
276.587428754647
 30
0.0
 11
-53.56712512467671
 21
275.5267685828671
 31
0.0
  0
LINE
  5
60
330
1F
100
AcDbEntity
  8
0
  6
Continuous
 62
     2
100
AcDbLine
 10
-52.86001834349021
 20
273.794717775299
 30
0.0
 11
-52.86001834349011
 21
275.5267685828671
 31
0.0
  0
LINE
  5
61
330
1F
100
AcDbEntity
  8
0
  6
Continuous
 62
     7
100
AcDbLine
 10
-49.03661647191335
 20
277.3682661048832
 30
0.0
 11
-37.37437983550476
 21
271.6380420926799
 31
0.0
  0
LINE
  5
62
330
1F
100
AcDbEntity
  8
0
  6
Continuous
 62
     7
100
AcDbLine
 10
-46.31928061751458
 20
267.165591701675
 30
0.0
 11
-46.31928061751459
 21
265.4335408941053
 31
0.0
  0
LINE
  5
63
330
1F
100
AcDbEntity
  8
0
  6
Continuous
 62
     7
100
AcDbLine
 10
-55.68844546823641
 20
274.8553779470789
 30
0.0
 11
-55.68844546823641
 21
276.587428754647
 31
0.0
  0
LINE
  5
64
330
1F
100
AcDbEntity
  8
0
  6
Continuous
 62
     7
100
AcDbLine
 10
-46.31928061751458
 20
266.8802416993331
 30
0.0
 11
-57.1360909074629
 21
272.2672448588563
 31
0.0
  0
LINE
  5
65
330
1F
100
AcDbEntity
  8
0
  6
Continuous
 62
     7
100
AcDbLine
 10
-44.86971171608217
 20
267.8903761523912
 30
0.0
 11
-57.1360909074629
 21
274.1315552274656
 31
0.0
  0
LINE
  5
66
330
1F
100
AcDbEntity
  8
0
  6
Continuous
 62
     2
100
AcDbLine
 10
-24.9148537467123
 20
249.7248436804047
 30
0.0
 11
-25.35634742836095
 21
249.9370930536757
 31
0.0
  0
LINE
  5
67
330
1F
100
AcDbEntity
  8
0
  6
Continuous
 62
     7
100
AcDbLine
 10
-24.91485374671244
 20
244.1468609793645
 30
0.0
 11
-24.9148537467123
 21
249.7248436804047
 31
0.0
  0
LINE
  5
68
330
1F
100
AcDbEntity
  8
0
  6
Continuous
 62
     2
100
AcDbLine
 10
-32.19021947456709
 20
254.4081641563291
 30
0.0
 11
-26.01089079711861
 21
251.3064850356402
 31
0.0
  0
LINE
  5
69
330
1F
100
AcDbEntity
  8
0
  6
Continuous
 62
     7
100
AcDbLine
 10
-32.11249648256489
 20
255.8895587067783
 30
0.0
 11
-33.5704499570074
 21
256.6470908895594
 31
0.0
  0
LINE
  5
6A
330
1F
100
AcDbEntity
  8
0
  6
Continuous
 62
     7
100
AcDbLine
 10
-33.2169100286439
 20
255.4977040539374
 30
0.0
 11
-32.47441290660049
 21
255.8689526149591
 31
0.0
  0
LINE
  5
6B
330
1F
100
AcDbEntity
  8
0
  6
Continuous
 62
     2
100
AcDbLine
 10
-25.26839367507573
 20
251.6777335966616
 30
0.0
 11
-31.91839874875855
 21
255.0156660754425
 31
0.0
  0
LINE
  5
6C
330
1F
100
AcDbEntity
  8
0
  6
Continuous
 62
     2
100
AcDbLine
 10
-24.91485374671223
 20
252.2874997749387
 30
0.0
 11
-32.72225753981597
 21
256.2063820024263
 31
0.0
  0
LINE
  5
6D
330
1F
100
AcDbEntity
  8
0
  6
Continuous
 62
     7
100
AcDbLine
 10
-25.2683936750758
 20
249.9810699303183
 30
0.0
 11
-26.01089079711861
 21
249.6098213692969
 31
0.0
  0
LINE
  5
6E
330
1F
100
AcDbEntity
  8
0
  6
Continuous
 62
     7
100
AcDbLine
 10
-26.01089079711861
 20
251.3064850356402
 30
0.0
 11
-25.26839367507573
 21
251.6777335966616
 31
0.0
  0
LINE
  5
6F
330
1F
100
AcDbEntity
  8
0
  6
Continuous
 62
     2
100
AcDbLine
 10
-26.57655468250022
 20
250.0197833691587
 30
0.0
 11
-33.54385587846406
 21
253.3693337108799
 31
0.0
  0
LINE
  5
70
330
1F
100
AcDbEntity
  8
0
  6
Continuous
 62
     7
100
AcDbLine
 10
-26.57655468250022
 20
250.3308591503968
 30
0.0
 11
-26.57655468250022
 21
250.0197833691587
 31
0.0
  0
LINE
  5
71
330
1F
100
AcDbEntity
  8
0
  6
Continuous
 62
     7
100
AcDbLine
 10
-26.36447289885088
 20
249.5850479608865
 30
0.0
 11
-33.57044995700741
 21
253.0493424184831
 31
0.0
  0
LINE
  5
72
330
1F
100
AcDbEntity
  8
0
  6
Continuous
 62
     2
100
AcDbLine
 10
-33.3307293833213
 20
253.721078985033
 30
0.0
 11
-26.57655468250022
 21
250.3308591503968
 31
0.0
  0
LINE
  5
73
330
1F
100
AcDbEntity
  8
0
  6
Continuous
 62
     2
100
AcDbLine
 10
-24.91485374671244
 20
244.1468609793645
 30
0.0
 11
-33.57044995700743
 21
248.4914885989575
 31
0.0
  0
LINE
  5
74
330
1F
100
AcDbEntity
  8
0
  6
Continuous
 62
     7
100
AcDbLine
 10
-51.6225814764139
 20
249.508946412379
 30
0.0
 11
-58.6936492882792
 21
253.0444803183116
 31
0.0
  0
LINE
  5
75
330
1F
100
AcDbEntity
  8
0
  6
Continuous
 62
     7
100
AcDbLine
 10
-57.98654250709261
 20
250.7133549571731
 30
0.0
 11
-57.98654250709261
 21
252.6909269277183
 31
0.0
  0
LINE
  5
76
330
1F
100
AcDbEntity
  8
0
  6
Continuous
 62
     7
100
AcDbLine
 10
-58.6936492882792
 20
249.236324292132
 30
0.0
 11
-58.6936492882792
 21
250.3598015665798
 31
0.0
  0
LINE
  5
77
330
1F
100
AcDbEntity
  8
0
  6
Continuous
 62
     7
100
AcDbLine
 10
-54.2742319058635
 20
245.728351463603
 30
0.0
 11
-56.39555224942291
 21
246.7890116353827
 31
0.0
  0
LINE
  5
78
330
1F
100
AcDbEntity
  8
0
  6
Continuous
 62
     7
100
AcDbLine
 10
-56.39555224942291
 20
246.7890116353827
 30
0.0
 11
-56.3955522494232
 21
247.7740043073304
 31
0.0
  0
LINE
  5
79
330
1F
100
AcDbEntity
  8
0
  6
Continuous
 62
     7
100
AcDbLine
 10
-58.6936492882792
 20
250.3598015665798
 30
0.0
 11
-57.98654250709261
 21
250.7133549571731
 31
0.0
  0
LINE
  5
7A
330
1F
100
AcDbEntity
  8
0
  6
Continuous
 62
     7
100
AcDbLine
 10
-57.1360909074629
 20
248.1507931139318
 30
0.0
 11
-57.1360909074629
 21
248.440897627156
 31
0.0
  0
LINE
  5
7B
330
1F
100
AcDbEntity
  8
0
  6
Continuous
 62
     7
100
AcDbLine
 10
-57.98654250709261
 20
250.7133549571731
 30
0.0
 11
-51.6225814764139
 21
247.5313744418336
 31
0.0
  0
LINE
  5
7C
330
1F
100
AcDbEntity
  8
0
  6
Continuous
 62
     7
100
AcDbLine
 10
-58.6936492882792
 20
250.3598015665798
 30
0.0
 11
-51.6225814764139
 21
246.8242676606472
 31
0.0
  0
LINE
  5
7D
330
1F
100
AcDbEntity
  8
0
  6
Continuous
 62
     7
100
AcDbLine
 10
-57.1360909074629
 20
248.1507931139318
 30
0.0
 11
-46.31928061751484
 21
242.6471600542176
 31
0.0
  0
LINE
  5
7E
330
1F
100
AcDbEntity
  8
0
  6
Continuous
 62
     2
100
AcDbLine
 10
-30.84813731346634
 20
237.7161340686467
 30
0.0
 11
-32.09978839226821
 21
238.3664744193
 31
0.0
  0
LINE
  5
7F
330
1F
100
AcDbEntity
  8
0
  6
Continuous
 62
     7
100
AcDbLine
 10
-32.12088105557497
 20
239.4180571682853
 30
0.0
 11
-32.12088105557497
 21
238.6385485683357
 31
0.0
  0
LINE
  5
80
330
1F
100
AcDbEntity
  8
0
  6
Continuous
 62
     7
100
AcDbLine
 10
-30.84813731346634
 20
237.7161340686467
 30
0.0
 11
-27.63716639025545
 21
239.3216195302521
 31
0.0
  0
LINE
  5
81
330
1F
100
AcDbEntity
  8
0
  6
Continuous
 62
     7
100
AcDbLine
 10
-26.36442264814673
 20
241.5167777720496
 30
0.0
 11
-26.36442264814666
 21
242.2962863719995
 31
0.0
  0
LINE
  5
82
330
1F
100
AcDbEntity
  8
0
  6
Continuous
 62
     7
100
AcDbLine
 10
-25.79875876276505
 20
243.2719122572428
 30
0.0
 11
-25.26839367507596
 21
243.5370948010874
 31
0.0
  0
LINE
  5
83
330
1F
100
AcDbEntity
  8
0
  6
Continuous
 62
     2
100
AcDbLine
 10
-33.57044995700746
 20
240.2872838209073
 30
0.0
 11
-32.68654494095658
 21
239.8280191681471
 31
0.0
  0
LINE
  5
84
330
1F
100
AcDbEntity
  8
0
  6
Continuous
 62
     7
100
AcDbLine
 10
-33.57044995700746
 20
240.4959366120827
 30
0.0
 11
-32.32462851692098
 21
239.8486252599662
 31
0.0
  0
LINE
  5
85
330
1F
100
AcDbEntity
  8
0
  6
Continuous
 62
     2
100
AcDbLine
 10
-33.21691002864397
 20
239.5628366243034
 30
0.0
 11
-33.56459088386664
 21
239.7434867217071
 31
0.0
  0
LINE
  5
86
330
1F
100
AcDbEntity
  8
0
  6
Continuous
 62
     7
100
AcDbLine
 10
-33.21691002864397
 20
239.5628366243034
 30
0.0
 11
-32.68654494095658
 21
239.8280191681471
 31
0.0
  0
LINE
  5
87
330
1F
100
AcDbEntity
  8
0
  6
Continuous
 62
     2
100
AcDbLine
 10
-27.63716639025545
 20
239.3216195302521
 30
0.0
 11
-33.57044995700746
 21
242.2997976976126
 31
0.0
  0
LINE
  5
88
330
1F
100
AcDbEntity
  8
0
  6
Continuous
 62
     2
100
AcDbLine
 10
-26.36442264814673
 20
241.5167777720496
 30
0.0
 11
-33.57044995700744
 21
245.1338024706349
 31
0.0
  0
LINE
  5
89
330
1F
100
AcDbEntity
  8
0
  6
Continuous
 62
     2
100
AcDbLine
 10
-33.57044995700744
 20
245.9133110705849
 30
0.0
 11
-26.36442264814666
 21
242.2962863719995
 31
0.0
  0
LINE
  5
8A
330
1F
100
AcDbEntity
  8
0
  6
Continuous
 62
     2
100
AcDbLine
 10
-33.57044995700743
 20
247.1728687474836
 30
0.0
 11
-25.79875876276505
 21
243.2719122572428
 31
0.0
  0
LINE
  5
8B
330
1F
100
AcDbEntity
  8
0
  6
Continuous
 62
     2
100
AcDbLine
 10
-25.26839367507596
 20
243.5370948010874
 30
0.0
 11
-33.57044995700743
 21
247.7042650508958
 31
0.0
  0
LINE
  5
8C
330
1F
100
AcDbEntity
  8
0
  6
Continuous
 62
     7
100
AcDbLine
 10
-24.04541701013866
 20
240.4423674678953
 30
0.0
 11
-34.43988669358093
 21
235.2451326261741
 31
0.0
  0
LINE
  5
8D
330
1F
100
AcDbEntity
  8
0
  6
Continuous
 62
     7
100
AcDbLine
 10
-34.43988669358093
 20
235.2451326261741
 30
0.0
 11
-34.43988669358097
 21
261.225894739708
 31
0.0
  0
LINE
  5
8E
330
1F
100
AcDbEntity
  8
0
  6
Continuous
 62
     7
100
AcDbLine
 10
-51.6225814764139
 20
249.508946412379
 30
0.0
 11
-51.6225814764139
 21
246.8242676606472
 31
0.0
  0
LINE
  5
8F
330
1F
100
AcDbEntity
  8
0
  6
Continuous
 62
     7
100
AcDbLine
 10
-46.31928061751484
 20
242.91688039571
 30
0.0
 11
-46.31928061751485
 21
241.1848295881413
 31
0.0
  0
LINE
  5
90
330
1F
100
AcDbEntity
  8
0
  6
Continuous
 62
     7
100
AcDbLine
 10
-33.57044995700741
 20
253.1912742093172
 30
0.0
 11
-33.57044995700747
 21
239.8190628742171
 31
0.0
  0
LINE
  5
91
330
1F
100
AcDbEntity
  8
0
  6
Continuous
 62
     7
100
AcDbLine
 10
-53.56712512467701
 20
245.728351463603
 30
0.0
 11
-52.96587964002251
 21
246.0289742059302
 31
0.0
  0
LINE
  5
92
330
1F
100
AcDbEntity
  8
0
  6
Continuous
 62
     7
100
AcDbLine
 10
-58.6936492882792
 20
253.0444803183116
 30
0.0
 11
-58.6936492882792
 21
267.6803096422686
 31
0.0
  0
LINE
  5
93
330
1F
100
AcDbEntity
  8
0
  6
Continuous
 62
     2
100
AcDbLine
 10
-54.2742319058635
 20
245.728351463603
 30
0.0
 11
-54.2742319058635
 21
246.6946686750961
 31
0.0
  0
LINE
  5
94
330
1F
100
AcDbEntity
  8
0
  6
Continuous
 62
     2
100
AcDbLine
 10
-53.56712512467701
 20
245.728351463603
 30
0.0
 11
-53.56712512467701
 21
246.334890131018
 31
0.0
  0
LINE
  5
95
330
1F
100
AcDbEntity
  8
0
  6
Continuous
 62
     7
100
AcDbLine
 10
-53.56712512467671
 20
273.794717775299
 30
0.0
 11
-55.68844546823641
 21
274.8553779470789
 31
0.0
  0
LINE
  5
96
330
1F
100
AcDbEntity
  8
0
  6
Continuous
 62
     7
100
AcDbLine
 10
-58.6936492882792
 20
267.6803096422686
 30
0.0
 11
-51.6225814764138
 21
264.1447757363359
 31
0.0
  0
LINE
  5
97
330
1F
100
AcDbEntity
  8
0
  6
Continuous
 62
     7
100
AcDbLine
 10
-34.43988669358093
 20
235.2451326261741
 30
0.0
 11
-46.31928061751485
 21
241.1848295881413
 31
0.0
  0
LINE
  5
98
330
1F
100
AcDbEntity
  8
0
  6
Continuous
 62
     7
100
AcDbLine
 10
-46.31928061751458
 20
267.165591701675
 30
0.0
 11
-34.43988669358097
 21
261.225894739708
 31
0.0
  0
LINE
  5
99
330
1F
100
AcDbEntity
  8
0
  6
Continuous
 62
     7
100
AcDbLine
 10
-58.6936492882792
 20
267.6803096422686
 30
0.0
 11
-57.98654250709261
 21
268.0338630328619
 31
0.0
  0
LINE
  5
9A
330
1F
100
AcDbEntity
  8
0
  6
Continuous
 62
     7
100
AcDbLine
 10
-55.68844546823641
 20
274.8553779470789
 30
0.0
 11
-57.1360909074629
 21
274.1315552274656
 31
0.0
  0
LINE
  5
9B
330
1F
100
AcDbEntity
  8
0
  6
Continuous
 62
     7
100
AcDbLine
 10
-58.6936492882792
 20
270.3649883940004
 30
0.0
 11
-58.6936492882792
 21
271.4884656684482
 31
0.0
  0
LINE
  5
9C
330
1F
100
AcDbEntity
  8
0
  6
Continuous
 62
     7
100
AcDbLine
 10
-57.98654250709261
 20
268.0338630328619
 30
0.0
 11
-57.98654250709261
 21
270.0114350034071
 31
0.0
  0
LINE
  5
9D
330
1F
100
AcDbEntity
  8
0
  6
Continuous
 62
     7
100
AcDbLine
 10
-51.6225814764137
 20
266.8294544880676
 30
0.0
 11
-58.6936492882792
 21
270.3649883940004
 31
0.0
  0
LINE
  5
9E
330
1F
100
AcDbEntity
  8
0
  6
Continuous
 62
     7
100
AcDbLine
 10
-57.98654250709261
 20
268.0338630328619
 30
0.0
 11
-51.6225814764137
 21
264.8518825175222
 31
0.0
  0
LINE
  5
9F
330
1F
100
AcDbEntity
  8
0
  6
Continuous
 62
     7
100
AcDbLine
 10
-57.1360909074629
 20
272.2672448588563
 30
0.0
 11
-57.1360909074629
 21
274.1315552274656
 31
0.0
  0
LINE
  5
A0
330
1F
100
AcDbEntity
  8
0
  6
Continuous
 62
     7
100
AcDbLine
 10
-58.6936492882792
 20
271.4884656684482
 30
0.0
 11
-57.1360909074629
 21
272.2672448588563
 31
0.0
  0
LINE
  5
A1
330
1F
100
AcDbEntity
  8
0
  6
Continuous
 62
     7
100
AcDbLine
 10
-51.6225814764137
 20
266.8294544880676
 30
0.0
 11
-51.6225814764138
 21
264.1447757363359
 31
0.0
  0
LINE
  5
A2
330
1F
100
AcDbEntity
  8
0
  6
Continuous
 62
     7
100
AcDbLine
 10
-55.68844546823641
 20
276.587428754647
 30
0.0
 11
-51.3043834248798
 21
278.7794597763253
 31
0.0
  0
LINE
  5
A3
330
1F
100
AcDbEntity
  8
0
  6
Continuous
 62
     7
100
AcDbLine
 10
-49.1830630813201
 20
277.7187996045454
 30
0.0
 11
-51.3043834248798
 21
278.7794597763253
 31
0.0
  0
LINE
  5
A4
330
1F
100
AcDbEntity
  8
0
  6
Continuous
 62
     7
100
AcDbLine
 10
-52.86001834349021
 20
273.794717775299
 30
0.0
 11
-49.1830630813201
 21
275.6331954063832
 31
0.0
  0
LINE
  5
A5
330
1F
100
AcDbEntity
  8
0
  6
Continuous
 62
     7
100
AcDbLine
 10
-58.6936492882792
 20
271.4884656684482
 30
0.0
 11
-46.31928061751459
 21
265.4335408941053
 31
0.0
  0
LINE
  5
A6
330
1F
100
AcDbEntity
  8
0
  6
Continuous
 62
     7
100
AcDbLine
 10
-46.31928061751484
 20
242.91688039571
 30
0.0
 11
-58.6936492882792
 21
249.236324292132
 31
0.0
  0
LINE
  5
A7
330
1F
100
AcDbEntity
  8
1
  6
Continuous
 62
     7
100
AcDbLine
 10
-189.0
 20
20.0
 30
0.0
 11
-189.0
 21
4.99999999999989
 31
0.0
  0
LINE
  5
A8
330
1F
100
AcDbEntity
  8
1
  6
Continuous
 62
     7
100
AcDbLine
 10
-49.0
 20
20.0
 30
0.0
 11
-49.0
 21
5.0
 31
0.0
  0
LINE
  5
A9
330
1F
100
AcDbEntity
  8
1
  6
Continuous
 62
     7
100
AcDbLine
 10
-31.6473986225146
 20
20.0
 30
0.0
 11
-31.6473986225146
 21
5.0
 31
0.0
  0
LINE
  5
AA
330
1F
100
AcDbEntity
  8
1
  6
Continuous
 62
     7
100
AcDbLine
 10
-159.0
 20
20.0
 30
0.0
 11
-159.0
 21
5.0
 31
0.0
  0
LINE
  5
AB
330
1F
100
AcDbEntity
  8
1
  6
Continuous
 62
     7
100
AcDbLine
 10
-189.0
 20
12.5
 30
0.0
 11
-159.0
 21
12.5
 31
0.0
  0
LINE
  5
AC
330
1F
100
AcDbEntity
  8
1
  6
Continuous
 62
     7
100
AcDbLine
 10
-210.0000000000001
 20
148.4999999999998
 30
0.0
 11
-195.0000000000001
 21
148.4999999999998
 31
0.0
  0
LINE
  5
AD
330
1F
100
AcDbEntity
  8
1
  6
Continuous
 62
     7
100
AcDbLine
 10
0.0
 20
0.0
 30
0.0
 11
0.0
 21
297.0000000000001
 31
0.0
  0
LINE
  5
AE
330
1F
100
AcDbEntity
  8
1
  6
Continuous
 62
     7
100
AcDbLine
 10
-210.0000000000001
 20
0.0
 30
0.0
 11
0.0
 21
0.0
 31
0.0
  0
LINE
  5
AF
330
1F
100
AcDbEntity
  8
1
  6
Continuous
 62
     7
100
AcDbLine
 10
-210.0000000000001
 20
297.0000000000001
 30
0.0
 11
-210.0000000000001
 21
0.0
 31
0.0
  0
LINE
  5
B0
330
1F
100
AcDbEntity
  8
1
  6
Continuous
 62
     7
100
AcDbLine
 10
0.0
 20
297.0000000000001
 30
0.0
 11
-210.0000000000001
 21
297.0000000000001
 31
0.0
  0
LINE
  5
B1
330
1F
100
AcDbEntity
  8
1
  6
Continuous
 62
     7
100
AcDbLine
 10
-5.0
 20
4.99999999999989
 30
0.0
 11
-5.0
 21
292.0000000000001
 31
0.0
  0
LINE
  5
B2
330
1F
100
AcDbEntity
  8
1
  6
Continuous
 62
     7
100
AcDbLine
 10
-5.0
 20
292.0000000000001
 30
0.0
 11
-189.0
 21
292.0000000000001
 31
0.0
  0
LINE
  5
B3
330
1F
100
AcDbEntity
  8
1
  6
Continuous
 62
     7
100
AcDbLine
 10
-189.0
 20
292.0000000000001
 30
0.0
 11
-189.0
 21
4.99999999999989
 31
0.0
  0
LINE
  5
B4
102
{ACAD_REACTORS
330
32B
102
}
330
1F
100
AcDbEntity
  8
1
  6
Continuous
 62
     7
100
AcDbLine
 10
-15.99036597792389
 20
10.07749983983257
 30
0.0
 11
-15.99036597792389
 21
14.92250016016737
 31
0.0
  0
LINE
  5
B5
102
{ACAD_REACTORS
330
328
102
}
330
1F
100
AcDbEntity
  8
1
  6
Continuous
 62
     7
100
AcDbLine
 10
-17.32369931125729
 20
12.5
 30
0.0
 11
-17.32369931125729
 21
14.23205080756878
 31
0.0
  0
LINE
  5
B6
102
{ACAD_REACTORS
330
328
102
}
330
1F
100
AcDbEntity
  8
1
  6
Continuous
 62
     7
100
AcDbLine
 10
-17.32369931125729
 20
14.23205080756878
 30
0.0
 11
-18.1793617439599
 21
12.75
 31
0.0
  0
LINE
  5
B7
102
{ACAD_REACTORS
330
328
102
}
330
1F
100
AcDbEntity
  8
1
  6
Continuous
 62
     7
100
AcDbLine
 10
-18.46803687855478
 20
12.75
 30
0.0
 11
-19.32369931125729
 21
14.23205080756878
 31
0.0
  0
LINE
  5
B8
102
{ACAD_REACTORS
330
328
102
}
330
1F
100
AcDbEntity
  8
1
  6
Continuous
 62
     7
100
AcDbLine
 10
-19.32369931125729
 20
14.23205080756878
 30
0.0
 11
-19.32369931125729
 21
12.5
 31
0.0
  0
LINE
  5
B9
330
1F
100
AcDbEntity
  8
1
  6
Continuous
 62
     7
100
AcDbLine
 10
-26.74013458639891
 20
12.64436426434128
 30
0.0
 11
-18.32369931125729
 21
17.5
 31
0.0
  0
LINE
  5
BA
330
1F
100
AcDbEntity
  8
1
  6
Continuous
 62
     7
100
AcDbLine
 10
-18.32369931125729
 20
17.5
 30
0.0
 11
-9.90726403611589
 21
12.64436426434128
 31
0.0
  0
LINE
  5
BB
330
1F
100
AcDbEntity
  8
1
  6
Continuous
 62
     7
100
AcDbLine
 10
-9.90726403611589
 20
12.35563573565861
 30
0.0
 11
-18.32369931125729
 21
7.5
 31
0.0
  0
LINE
  5
BC
330
1F
100
AcDbEntity
  8
1
  6
Continuous
 62
     7
100
AcDbLine
 10
-18.32369931125729
 20
7.5
 30
0.0
 11
-26.74013458639891
 21
12.35563573565861
 31
0.0
  0
LINE
  5
BD
102
{ACAD_REACTORS
330
328
102
}
330
1F
100
AcDbEntity
  8
1
  6
Continuous
 62
     7
100
AcDbLine
 10
-19.99036597792409
 20
12.5
 30
0.0
 11
-19.99036597792409
 21
15.73121731203457
 31
0.0
  0
LINE
  5
BE
102
{ACAD_REACTORS
330
328
102
}
330
1F
100
AcDbEntity
  8
1
  6
Continuous
 62
     7
100
AcDbLine
 10
-19.49593229430059
 20
15.86370041827229
 30
0.0
 11
-18.32369931125729
 21
13.83333333333326
 31
0.0
  0
LINE
  5
BF
102
{ACAD_REACTORS
330
328
102
}
330
1F
100
AcDbEntity
  8
1
  6
Continuous
 62
     7
100
AcDbLine
 10
-19.99036597792409
 20
12.5
 30
0.0
 11
-19.99036597792409
 21
10.84758507263291
 31
0.0
  0
LINE
  5
C0
102
{ACAD_REACTORS
330
328
102
}
330
1F
100
AcDbEntity
  8
1
  6
Continuous
 62
     7
100
AcDbLine
 10
-19.32369931125729
 20
10.84758507263291
 30
0.0
 11
-19.32369931125729
 21
12.5
 31
0.0
  0
LINE
  5
C1
102
{ACAD_REACTORS
330
328
102
}
330
1F
100
AcDbEntity
  8
1
  6
Continuous
 62
     7
100
AcDbLine
 10
-17.32369931125729
 20
12.5
 30
0.0
 11
-17.32369931125729
 21
9.3082690706018
 31
0.0
  0
LINE
  5
C2
102
{ACAD_REACTORS
330
328
102
}
330
1F
100
AcDbEntity
  8
1
  6
Continuous
 62
     7
100
AcDbLine
 10
-16.65703264459069
 20
9.3082690706018
 30
0.0
 11
-16.65703264459069
 21
15.73121731203457
 31
0.0
  0
LINE
  5
C3
102
{ACAD_REACTORS
330
328
102
}
330
1F
100
AcDbEntity
  8
1
  6
Continuous
 62
     7
100
AcDbLine
 10
-17.15146632821399
 20
15.86370041827229
 30
0.0
 11
-18.32369931125729
 21
13.83333333333326
 31
0.0
  0
LINE
  5
C4
102
{ACAD_REACTORS
330
329
102
}
330
1F
100
AcDbEntity
  8
1
  6
Continuous
 62
     7
100
AcDbLine
 10
-21.32369931125729
 20
10.27002114803258
 30
0.0
 11
-21.32369931125729
 21
14.92250016016737
 31
0.0
  0
LINE
  5
C5
102
{ACAD_REACTORS
330
329
102
}
330
1F
100
AcDbEntity
  8
1
  6
Continuous
 62
     7
100
AcDbLine
 10
-20.65703264459069
 20
14.92250016016737
 30
0.0
 11
-20.65703264459069
 21
10.2700211480327
 31
0.0
  0
LINE
  5
C6
102
{ACAD_REACTORS
330
329
102
}
330
1F
100
AcDbEntity
  8
1
  6
Continuous
 62
     7
100
AcDbLine
 10
-20.65703264459069
 20
10.2700211480327
 30
0.0
 11
-18.4904584934275
 21
9.0200745223616
 31
0.0
  0
LINE
  5
C7
102
{ACAD_REACTORS
330
329
102
}
330
1F
100
AcDbEntity
  8
1
  6
Continuous
 62
     7
100
AcDbLine
 10
-18.8236067957539
 20
8.44261746499581
 30
0.0
 11
-20.99018094691701
 21
9.69256409066691
 31
0.0
  0
LINE
  5
C8
102
{ACAD_REACTORS
330
32A
102
}
330
1F
100
AcDbEntity
  8
1
  6
Continuous
 62
     7
100
AcDbLine
 10
-21.99036597792409
 20
14.15326939093666
 30
0.0
 11
-21.99036597792409
 21
11.0392519172633
 31
0.0
  0
LINE
  5
C9
102
{ACAD_REACTORS
330
32A
102
}
330
1F
100
AcDbEntity
  8
1
  6
Continuous
 62
     7
100
AcDbLine
 10
-21.99036597792409
 20
11.0392519172633
 30
0.0
 11
-21.99036597792409
 21
10.84673060906317
 31
0.0
  0
LINE
  5
CA
102
{ACAD_REACTORS
330
32A
102
}
330
1F
100
AcDbEntity
  8
1
  6
Continuous
 62
     7
100
AcDbLine
 10
-22.65703264459069
 20
10.84673060906317
 30
0.0
 11
-22.65703264459069
 21
14.15326939093666
 31
0.0
  0
LINE
  5
CB
102
{ACAD_REACTORS
330
32B
102
}
330
1F
100
AcDbEntity
  8
1
  6
Continuous
 62
     7
100
AcDbLine
 10
-15.4904584934275
 20
15.21122868885027
 30
0.0
 11
-14.15712516009418
 21
14.44199791961938
 31
0.0
  0
LINE
  5
CC
102
{ACAD_REACTORS
330
32B
102
}
330
1F
100
AcDbEntity
  8
1
  6
Continuous
 62
     7
100
AcDbLine
 10
-14.4902734624205
 20
13.86454086225376
 30
0.0
 11
-15.32369931125729
 21
14.345363467352
 31
0.0
  0
LINE
  5
CD
102
{ACAD_REACTORS
330
32B
102
}
330
1F
100
AcDbEntity
  8
1
  6
Continuous
 62
     7
100
AcDbLine
 10
-15.32369931125729
 20
14.345363467352
 30
0.0
 11
-15.32369931125729
 21
12.83333333333326
 31
0.0
  0
LINE
  5
CE
102
{ACAD_REACTORS
330
32B
102
}
330
1F
100
AcDbEntity
  8
1
  6
Continuous
 62
     7
100
AcDbLine
 10
-15.32369931125729
 20
12.83333333333326
 30
0.0
 11
-14.32369931125729
 21
12.83333333333326
 31
0.0
  0
LINE
  5
CF
102
{ACAD_REACTORS
330
32B
102
}
330
1F
100
AcDbEntity
  8
1
  6
Continuous
 62
     7
100
AcDbLine
 10
-14.32369931125729
 20
12.16666666666657
 30
0.0
 11
-15.32369931125729
 21
12.16666666666657
 31
0.0
  0
LINE
  5
D0
102
{ACAD_REACTORS
330
32B
102
}
330
1F
100
AcDbEntity
  8
1
  6
Continuous
 62
     7
100
AcDbLine
 10
-15.32369931125729
 20
12.16666666666657
 30
0.0
 11
-15.32369931125729
 21
10.654636532648
 31
0.0
  0
LINE
  5
D1
102
{ACAD_REACTORS
330
32B
102
}
330
1F
100
AcDbEntity
  8
1
  6
Continuous
 62
     7
100
AcDbLine
 10
-15.32369931125729
 20
10.654636532648
 30
0.0
 11
-14.4902734624205
 21
11.13545913774618
 31
0.0
  0
LINE
  5
D2
102
{ACAD_REACTORS
330
32B
102
}
330
1F
100
AcDbEntity
  8
1
  6
Continuous
 62
     7
100
AcDbLine
 10
-14.15712516009418
 20
10.55800208038028
 30
0.0
 11
-15.4904584934275
 21
9.78877131114967
 31
0.0
  0
LINE
  5
D3
330
1F
100
AcDbEntity
  8
1
  6
Continuous
 62
     7
100
AcDbLine
 10
-189.0
 20
25.0
 30
0.0
 11
-5.0
 21
25.0
 31
0.0
  0
LINE
  5
D4
330
1F
100
AcDbEntity
  8
1
  6
Continuous
 62
     7
100
AcDbLine
 10
-182.0
 20
20.0
 30
0.0
 11
-182.0
 21
25.0
 31
0.0
  0
LINE
  5
D5
330
1F
100
AcDbEntity
  8
1
  6
Continuous
 62
     7
100
AcDbLine
 10
-163.9999999999999
 20
20.0
 30
0.0
 11
-163.9999999999999
 21
25.0
 31
0.0
  0
LINE
  5
D6
330
1F
100
AcDbEntity
  8
1
  6
Continuous
 62
     7
100
AcDbLine
 10
-189.0
 20
30.0
 30
0.0
 11
-5.0
 21
30.0
 31
0.0
  0
LINE
  5
D7
330
1F
100
AcDbEntity
  8
1
  6
Continuous
 62
     7
100
AcDbLine
 10
-182.0
 20
25.0
 30
0.0
 11
-182.0
 21
30.0
 31
0.0
  0
LINE
  5
D8
330
1F
100
AcDbEntity
  8
1
  6
Continuous
 62
     7
100
AcDbLine
 10
-163.9999999999999
 20
25.0
 30
0.0
 11
-163.9999999999999
 21
30.0
 31
0.0
  0
LINE
  5
D9
330
1F
100
AcDbEntity
  8
1
  6
Continuous
 62
     7
100
AcDbLine
 10
-189.0
 20
35.0
 30
0.0
 11
-5.0
 21
35.0
 31
0.0
  0
LINE
  5
DA
330
1F
100
AcDbEntity
  8
1
  6
Continuous
 62
     7
100
AcDbLine
 10
-182.0
 20
30.0
 30
0.0
 11
-182.0
 21
35.0
 31
0.0
  0
LINE
  5
DB
330
1F
100
AcDbEntity
  8
1
  6
Continuous
 62
     7
100
AcDbLine
 10
-163.9999999999999
 20
30.0
 30
0.0
 11
-163.9999999999999
 21
35.0
 31
0.0
  0
LINE
  5
DC
330
1F
100
AcDbEntity
  8
1
  6
Continuous
 62
     7
100
AcDbLine
 10
-189.0
 20
40.0
 30
0.0
 11
-5.0
 21
40.0
 31
0.0
  0
LINE
  5
DD
330
1F
100
AcDbEntity
  8
1
  6
Continuous
 62
     7
100
AcDbLine
 10
-182.0
 20
35.0
 30
0.0
 11
-182.0
 21
40.0
 31
0.0
  0
LINE
  5
DE
330
1F
100
AcDbEntity
  8
1
  6
Continuous
 62
     7
100
AcDbLine
 10
-163.9999999999999
 20
35.0
 30
0.0
 11
-163.9999999999999
 21
40.0
 31
0.0
  0
LINE
  5
DF
330
1F
100
AcDbEntity
  8
1
  6
Continuous
 62
     7
100
AcDbLine
 10
-189.0
 20
4.99999999999989
 30
0.0
 11
-5.0
 21
4.99999999999989
 31
0.0
  0
LINE
  5
E0
330
1F
100
AcDbEntity
  8
1
  6
Continuous
 62
     7
100
AcDbLine
 10
-189.0
 20
20.0
 30
0.0
 11
-5.0
 21
20.0
 31
0.0
  0
LINE
  5
E1
330
1F
100
AcDbEntity
  8
1
  6
Continuous
 62
     7
100
AcDbLine
 10
-145.0354478246393
 20
170.2945555638419
 30
0.0
 11
-142.5599717679243
 21
171.7227148273313
 31
0.0
  0
LINE
  5
E2
330
1F
100
AcDbEntity
  8
1
  6
Continuous
 62
     7
100
AcDbLine
 10
-142.5599717679243
 20
171.7227148273313
 30
0.0
 11
-140.0844957112093
 21
170.2945555638419
 31
0.0
  0
LINE
  5
E3
330
1F
100
AcDbEntity
  8
1
  6
Continuous
 62
     7
100
AcDbLine
 10
-140.0844957112093
 20
170.209633558708
 30
0.0
 11
-142.5599717679243
 21
168.7814742952186
 31
0.0
  0
LINE
  5
E4
330
1F
100
AcDbEntity
  8
1
  6
Continuous
 62
     7
100
AcDbLine
 10
-142.5599717679243
 20
168.7814742952186
 30
0.0
 11
-145.0354478246393
 21
170.209633558708
 31
0.0
  0
LINE
  5
E5
330
1F
100
AcDbEntity
  8
1
  6
Continuous
 62
     7
100
AcDbLine
 10
-141.7731870267799
 20
170.2465957437744
 30
0.0
 11
-141.2855885307818
 21
170.2465957437744
 31
0.0
  0
LINE
  5
E6
330
1F
100
AcDbEntity
  8
1
  6
Continuous
 62
     7
100
AcDbLine
 10
-141.7731870267799
 20
170.9631943969531
 30
0.0
 11
-141.7731870267799
 21
169.5409947255968
 31
0.0
  0
LINE
  5
E7
330
1F
100
AcDbEntity
  8
1
  6
Continuous
 62
     7
100
AcDbLine
 10
-141.7731870267799
 20
170.9631943969531
 30
0.0
 11
-141.2985535499453
 21
170.689367391087
 31
0.0
  0
LINE
  5
E8
330
1F
100
AcDbEntity
  8
1
  6
Continuous
 62
     7
100
AcDbLine
 10
-141.7731870267799
 20
169.5409947255968
 30
0.0
 11
-141.2985535499453
 21
169.8148217314629
 31
0.0
  0
LINE
  5
E9
330
1F
100
AcDbEntity
  8
1
  6
Continuous
 62
     7
100
AcDbLine
 10
-143.3467565090688
 20
169.5409947255968
 30
0.0
 11
-142.5730911138608
 21
169.0946493052845
 31
0.0
  0
LINE
  5
EA
330
1F
100
AcDbEntity
  8
1
  6
Continuous
 62
     7
100
AcDbLine
 10
-143.7314068269619
 20
169.7629083705351
 30
0.0
 11
-143.7314068269619
 21
170.7480719999401
 31
0.0
  0
LINE
  5
EB
330
1F
100
AcDbEntity
  8
1
  6
Continuous
 62
     7
100
AcDbLine
 10
-143.3467565090688
 20
170.9699856448785
 30
0.0
 11
-143.3467565090688
 21
169.5409947255968
 31
0.0
  0
LINE
  5
EC
330
1F
100
AcDbEntity
  8
1
  6
Continuous
 62
     7
100
AcDbLine
 10
-142.9421243564801
 20
169.7862695637933
 30
0.0
 11
-142.9421243564801
 21
171.1100849630383
 31
0.0
  0
LINE
  5
ED
330
1F
100
AcDbEntity
  8
1
  6
Continuous
 62
     7
100
AcDbLine
 10
-142.1628328033469
 20
169.3161990852697
 30
0.0
 11
-142.1628328033469
 21
171.1360421277292
 31
0.0
  0
LINE
  5
EE
330
1F
100
AcDbEntity
  8
1
  6
Continuous
 62
     7
100
AcDbLine
 10
-142.9421243564801
 20
171.1100849630383
 30
0.0
 11
-142.5599717679243
 21
170.4481772634158
 31
0.0
  0
LINE
  5
EF
330
1F
100
AcDbEntity
  8
1
  6
Continuous
 62
     7
100
AcDbLine
 10
-142.5599717679243
 20
170.4481772634158
 30
0.0
 11
-142.1628328033469
 21
171.1360421277292
 31
0.0
  0
LINE
  5
F0
330
1F
100
AcDbEntity
  8
0
  6
Continuous
 62
     2
100
AcDbLine
 10
-147.009914565106
 20
246.5741027675413
 30
0.0
 11
-147.1303453406185
 21
246.6945335430538
 31
0.0
  0
LINE
  5
F1
330
1F
100
AcDbEntity
  8
0
  6
Continuous
 62
     2
100
AcDbLine
 10
-147.3099145651061
 20
251.5741027675409
 30
0.0
 11
-147.4303453406185
 21
251.6945335430538
 31
0.0
  0
LINE
  5
F2
330
1F
100
AcDbEntity
  8
0
  6
Continuous
 62
     2
100
AcDbLine
 10
-144.8304443406516
 20
255.1945335430534
 30
0.0
 11
-144.7100135651393
 21
255.0741027675409
 31
0.0
  0
LINE
  5
F3
330
1F
100
AcDbEntity
  8
0
  6
Continuous
 62
     7
100
AcDbLine
 10
-145.659945026655
 20
255.9741027675415
 30
0.0
 11
-145.159945026655
 21
255.9741027675415
 31
0.0
  0
LINE
  5
F4
330
1F
100
AcDbEntity
  8
0
  6
Continuous
 62
     7
100
AcDbLine
 10
-145.659945026655
 20
257.9741027675405
 30
0.0
 11
-145.159945026655
 21
257.9741027675404
 31
0.0
  0
LINE
  5
F5
330
1F
100
AcDbEntity
  8
0
  6
Continuous
 62
     2
100
AcDbLine
 10
-146.2099450266547
 20
247.3740723059927
 30
0.0
 11
-146.3303758021671
 21
247.4945030815051
 31
0.0
  0
LINE
  5
F6
330
1F
100
AcDbEntity
  8
0
  6
Continuous
 62
     7
100
AcDbLine
 10
-146.3303758021671
 20
247.4945030815051
 30
0.0
 11
-146.3303758021671
 21
247.8537024535774
 31
0.0
  0
LINE
  5
F7
330
1F
100
AcDbEntity
  8
0
  6
Continuous
 62
     2
100
AcDbLine
 10
-146.3303758021671
 20
247.8537024535774
 30
0.0
 11
-146.2099450266547
 21
247.9741332290899
 31
0.0
  0
LINE
  5
F8
330
1F
100
AcDbEntity
  8
0
  6
Continuous
 62
     7
100
AcDbLine
 10
-146.2099450266547
 20
247.3740723059927
 30
0.0
 11
-146.2099450266547
 21
247.9741332290899
 31
0.0
  0
LINE
  5
F9
330
1F
100
AcDbEntity
  8
0
  6
Continuous
 62
     7
100
AcDbLine
 10
-144.4236790196652
 20
244.5734810535882
 30
0.0
 11
-144.2850380768193
 21
244.5471493068382
 31
0.0
  0
LINE
  5
FA
330
1F
100
AcDbEntity
  8
0
  6
Continuous
 62
     7
100
AcDbLine
 10
-144.4538942096133
 20
243.143687395085
 30
0.0
 11
-143.7267633414095
 21
243.1415003792579
 31
0.0
  0
LINE
  5
FB
330
1F
100
AcDbEntity
  8
0
  6
Continuous
 62
     7
100
AcDbLine
 10
-143.7267633414095
 20
243.1415003792579
 30
0.0
 11
-143.7260526758892
 21
243.3777798018398
 31
0.0
  0
LINE
  5
FC
330
1F
100
AcDbEntity
  8
0
  6
Continuous
 62
     7
100
AcDbLine
 10
-143.7260526758892
 20
243.3777798018398
 30
0.0
 11
-144.2641600060274
 21
243.3793982852506
 31
0.0
  0
LINE
  5
FD
330
1F
100
AcDbEntity
  8
0
  6
Continuous
 62
     2
100
AcDbLine
 10
-146.5099450266548
 20
252.3740723059923
 30
0.0
 11
-146.6303758021672
 21
252.4945030815051
 31
0.0
  0
LINE
  5
FE
330
1F
100
AcDbEntity
  8
0
  6
Continuous
 62
     2
100
AcDbLine
 10
-146.6303758021672
 20
253.3946020815382
 30
0.0
 11
-146.5099450266548
 21
253.2741713060254
 31
0.0
  0
LINE
  5
FF
330
1F
100
AcDbEntity
  8
0
  6
Continuous
 62
     7
100
AcDbLine
 10
-146.5099450266548
 20
252.3740723059923
 30
0.0
 11
-146.5099450266548
 21
253.2741713060254
 31
0.0
  0
LINE
  5
100
330
1F
100
AcDbEntity
  8
0
  6
Continuous
 62
     7
100
AcDbLine
 10
-146.6303758021672
 20
253.3946020815382
 30
0.0
 11
-146.6303758021672
 21
252.4945030815051
 31
0.0
  0
LINE
  5
101
330
1F
100
AcDbEntity
  8
0
  6
Continuous
 62
     2
100
AcDbLine
 10
-138.4895142511422
 20
253.3946020815376
 30
0.0
 11
-138.6099450266548
 21
253.2741713060251
 31
0.0
  0
LINE
  5
102
330
1F
100
AcDbEntity
  8
0
  6
Continuous
 62
     2
100
AcDbLine
 10
-136.9394952126744
 20
251.6945335430537
 30
0.0
 11
-137.059925988187
 21
251.5741027675409
 31
0.0
  0
LINE
  5
103
330
1F
100
AcDbEntity
  8
0
  6
Continuous
 62
     2
100
AcDbLine
 10
-139.959945026655
 20
257.9741027675405
 30
0.0
 11
-139.959945026655
 21
255.9741027675415
 31
0.0
  0
LINE
  5
104
330
1F
100
AcDbEntity
  8
0
  6
Continuous
 62
     7
100
AcDbLine
 10
-136.5599450266549
 20
251.0741218060088
 30
0.0
 11
-136.5599450266553
 21
240.2740837290733
 31
0.0
  0
LINE
  5
105
330
1F
100
AcDbEntity
  8
0
  6
Continuous
 62
     7
100
AcDbLine
 10
-137.8099754882036
 20
251.5741027675409
 30
0.0
 11
-137.059925988187
 21
251.5741027675409
 31
0.0
  0
LINE
  5
106
330
1F
100
AcDbEntity
  8
0
  6
Continuous
 62
     7
100
AcDbLine
 10
-136.4395142511427
 20
240.1536529535612
 30
0.0
 11
-136.4395142511423
 21
251.1945525815212
 31
0.0
  0
LINE
  5
107
330
1F
100
AcDbEntity
  8
0
  6
Continuous
 62
     7
100
AcDbLine
 10
-135.209945026655
 20
249.6298425444565
 30
0.0
 11
-135.209945026655
 21
232.3183629906245
 31
0.0
  0
LINE
  5
108
330
1F
100
AcDbEntity
  8
0
  6
Continuous
 62
     2
100
AcDbLine
 10
-136.4395142511423
 20
251.1945525815212
 30
0.0
 11
-136.5599450266549
 21
251.0741218060088
 31
0.0
  0
LINE
  5
109
330
1F
100
AcDbEntity
  8
0
  6
Continuous
 62
     7
100
AcDbLine
 10
-146.2821316707158
 20
232.2397941925444
 30
0.0
 11
-145.9349067449639
 21
233.1411929522922
 31
0.0
  0
LINE
  5
10A
330
1F
100
AcDbEntity
  8
0
  6
Continuous
 62
     2
100
AcDbLine
 10
-148.1803948406353
 20
230.2536719920284
 30
0.0
 11
-148.0599640651229
 21
230.3741027675409
 31
0.0
  0
LINE
  5
10B
330
1F
100
AcDbEntity
  8
0
  6
Continuous
 62
     2
100
AcDbLine
 10
-146.6303758021673
 20
228.5536034535443
 30
0.0
 11
-146.509945026655
 21
228.6740342290564
 31
0.0
  0
LINE
  5
10C
330
1F
100
AcDbEntity
  8
0
  6
Continuous
 62
     2
100
AcDbLine
 10
-146.509945026655
 20
229.5741332290896
 30
0.0
 11
-146.6303758021673
 21
229.4537024535771
 31
0.0
  0
LINE
  5
10D
330
1F
100
AcDbEntity
  8
0
  6
Continuous
 62
     2
100
AcDbLine
 10
-138.4895142511457
 20
228.5536034535438
 30
0.0
 11
-138.6099450266582
 21
228.6740342290563
 31
0.0
  0
LINE
  5
10E
330
1F
100
AcDbEntity
  8
0
  6
Continuous
 62
     7
100
AcDbLine
 10
-146.509945026655
 20
228.6740342290564
 30
0.0
 11
-146.509945026655
 21
229.5741332290896
 31
0.0
  0
LINE
  5
10F
330
1F
100
AcDbEntity
  8
0
  6
Continuous
 62
     7
100
AcDbLine
 10
-146.6303758021673
 20
229.4537024535771
 30
0.0
 11
-146.6303758021673
 21
228.5536034535443
 31
0.0
  0
LINE
  5
110
330
1F
100
AcDbEntity
  8
0
  6
Continuous
 62
     7
100
AcDbLine
 10
-135.209945026655
 20
229.6380398829641
 30
0.0
 11
-135.2097769651468
 21
229.6380398829641
 31
0.0
  0
LINE
  5
111
330
1F
100
AcDbEntity
  8
0
  6
Continuous
 62
     7
100
AcDbLine
 10
-135.209945026655
 20
229.6380398829641
 30
0.0
 11
-135.209945026655
 21
229.6298425444564
 31
0.0
  0
LINE
  5
112
330
1F
100
AcDbEntity
  8
0
  6
Continuous
 62
     7
100
AcDbLine
 10
-148.1803948406353
 20
230.2536719920284
 30
0.0
 11
-147.4303453406187
 21
230.2536719920284
 31
0.0
  0
LINE
  5
113
330
1F
100
AcDbEntity
  8
0
  6
Continuous
 62
     7
100
AcDbLine
 10
-137.6895447126942
 20
230.2536719920284
 30
0.0
 11
-136.9394952126751
 21
230.2536719920284
 31
0.0
  0
LINE
  5
114
330
1F
100
AcDbEntity
  8
0
  6
Continuous
 62
     7
100
AcDbLine
 10
-147.3099145651063
 20
230.3741027675409
 30
0.0
 11
-148.0599640651229
 21
230.3741027675409
 31
0.0
  0
LINE
  5
115
330
1F
100
AcDbEntity
  8
0
  6
Continuous
 62
     7
100
AcDbLine
 10
-135.209945026655
 20
230.6380398829641
 30
0.0
 11
-135.209945026655
 21
229.6380398829641
 31
0.0
  0
LINE
  5
116
330
1F
100
AcDbEntity
  8
0
  6
Continuous
 62
     2
100
AcDbLine
 10
-148.6803758021674
 20
230.7536529535606
 30
0.0
 11
-148.559945026655
 21
230.874083729073
 31
0.0
  0
LINE
  5
117
330
1F
100
AcDbEntity
  8
0
  6
Continuous
 62
     7
100
AcDbLine
 10
-145.6556101050308
 20
232.2379097826809
 30
0.0
 11
-145.803475292066
 21
232.2383545217485
 31
0.0
  0
LINE
  5
118
330
1F
100
AcDbEntity
  8
0
  6
Continuous
 62
     7
100
AcDbLine
 10
-145.6562886759793
 20
232.0123010436994
 30
0.0
 11
-145.6556101050308
 21
232.2379097826809
 31
0.0
  0
LINE
  5
119
330
1F
100
AcDbEntity
  8
0
  6
Continuous
 62
     7
100
AcDbLine
 10
-145.8041538630144
 20
232.012745782767
 30
0.0
 11
-145.6562886759793
 21
232.0123010436994
 31
0.0
  0
LINE
  5
11A
330
1F
100
AcDbEntity
  8
0
  6
Continuous
 62
     7
100
AcDbLine
 10
-135.209945026655
 20
232.3101656521171
 30
0.0
 11
-135.209945026655
 21
231.3101656521171
 31
0.0
  0
LINE
  5
11B
330
1F
100
AcDbEntity
  8
0
  6
Continuous
 62
     7
100
AcDbLine
 10
-135.209945026655
 20
232.3183629906245
 30
0.0
 11
-135.209945026655
 21
232.3101656521171
 31
0.0
  0
LINE
  5
11C
330
1F
100
AcDbEntity
  8
0
  6
Continuous
 62
     7
100
AcDbLine
 10
-135.209945026655
 20
231.3101656521171
 30
0.0
 11
-135.209945026655
 21
230.6380398829641
 31
0.0
  0
LINE
  5
11D
330
1F
100
AcDbEntity
  8
0
  6
Continuous
 62
     7
100
AcDbLine
 10
-145.9376210287576
 20
232.2387579963664
 30
0.0
 11
-146.2821316707158
 21
232.2397941925444
 31
0.0
  0
LINE
  5
11E
330
1F
100
AcDbEntity
  8
0
  6
Continuous
 62
     7
100
AcDbLine
 10
-145.9349067449639
 20
233.1411929522922
 30
0.0
 11
-145.9376210287576
 21
232.2387579963664
 31
0.0
  0
LINE
  5
11F
330
1F
100
AcDbEntity
  8
0
  6
Continuous
 62
     7
100
AcDbLine
 10
-135.209945026655
 20
231.3101656521171
 30
0.0
 11
-134.309945026655
 21
231.3101656521171
 31
0.0
  0
LINE
  5
120
330
1F
100
AcDbEntity
  8
0
  6
Continuous
 62
     7
100
AcDbLine
 10
-134.309945026655
 20
232.3101656521171
 30
0.0
 11
-135.2097769651468
 21
232.3101656521172
 31
0.0
  0
LINE
  5
121
330
1F
100
AcDbEntity
  8
0
  6
Continuous
 62
     7
100
AcDbLine
 10
-135.2097769651468
 20
232.3101656521172
 30
0.0
 11
-135.209945026655
 21
232.3101656521171
 31
0.0
  0
LINE
  5
122
330
1F
100
AcDbEntity
  8
0
  6
Continuous
 62
     7
100
AcDbLine
 10
-134.309945026655
 20
230.6380398829641
 30
0.0
 11
-135.209945026655
 21
230.6380398829641
 31
0.0
  0
LINE
  5
123
330
1F
100
AcDbEntity
  8
0
  6
Continuous
 62
     7
100
AcDbLine
 10
-135.2097769651468
 20
229.6380398829641
 30
0.0
 11
-134.309945026655
 21
229.6380398829641
 31
0.0
  0
LINE
  5
124
330
1F
100
AcDbEntity
  8
0
  6
Continuous
 62
     7
100
AcDbLine
 10
-134.309945026655
 20
229.6380398829641
 30
0.0
 11
-134.309945026655
 21
230.6380398829641
 31
0.0
  0
LINE
  5
125
330
1F
100
AcDbEntity
  8
0
  6
Continuous
 62
     7
100
AcDbLine
 10
-134.309945026655
 20
231.3101656521171
 30
0.0
 11
-134.309945026655
 21
232.3101656521171
 31
0.0
  0
LINE
  5
126
330
1F
100
AcDbEntity
  8
0
  6
Continuous
 62
     7
100
AcDbLine
 10
-135.209945026655
 20
229.6298425444564
 30
0.0
 11
-135.209945026655
 21
225.9741027675403
 31
0.0
  0
LINE
  5
127
330
1F
100
AcDbEntity
  8
0
  6
Continuous
 62
     7
100
AcDbLine
 10
-135.209945026655
 20
225.9741027675403
 30
0.0
 11
-138.459945026655
 21
225.9741027675407
 31
0.0
  0
LINE
  5
128
330
1F
100
AcDbEntity
  8
0
  6
Continuous
 62
     7
100
AcDbLine
 10
-144.8304443406518
 20
226.7536719920284
 30
0.0
 11
-140.2894457126613
 21
226.7536719920284
 31
0.0
  0
LINE
  5
129
330
1F
100
AcDbEntity
  8
0
  6
Continuous
 62
     7
100
AcDbLine
 10
-146.159945026655
 20
223.9741027675405
 30
0.0
 11
-138.959945026655
 21
223.9741027675405
 31
0.0
  0
LINE
  5
12A
330
1F
100
AcDbEntity
  8
0
  6
Continuous
 62
     2
100
AcDbLine
 10
-140.2894457126613
 20
226.7536719920284
 30
0.0
 11
-140.4098764881738
 21
226.8741027675409
 31
0.0
  0
LINE
  5
12B
330
1F
100
AcDbEntity
  8
0
  6
Continuous
 62
     7
100
AcDbLine
 10
-138.459945026655
 20
223.9741027675405
 30
0.0
 11
-138.959945026655
 21
223.9741027675405
 31
0.0
  0
LINE
  5
12C
330
1F
100
AcDbEntity
  8
0
  6
Continuous
 62
     7
100
AcDbLine
 10
-138.459945026655
 20
225.9741027675407
 30
0.0
 11
-138.459945026655
 21
223.9741027675405
 31
0.0
  0
LINE
  5
12D
330
1F
100
AcDbEntity
  8
0
  6
Continuous
 62
     7
100
AcDbLine
 10
-138.959945026655
 20
225.9741027675407
 30
0.0
 11
-146.159945026655
 21
225.9741027675407
 31
0.0
  0
LINE
  5
12E
330
1F
100
AcDbEntity
  8
0
  6
Continuous
 62
     7
100
AcDbLine
 10
-138.459945026655
 20
225.9741027675407
 30
0.0
 11
-138.959945026655
 21
225.9741027675407
 31
0.0
  0
LINE
  5
12F
330
1F
100
AcDbEntity
  8
0
  6
Continuous
 62
     7
100
AcDbLine
 10
-144.7100135651394
 20
226.8741027675409
 30
0.0
 11
-140.4098764881738
 21
226.8741027675409
 31
0.0
  0
LINE
  5
130
330
1F
100
AcDbEntity
  8
0
  6
Continuous
 62
     2
100
AcDbLine
 10
-144.8304443406518
 20
226.7536719920284
 30
0.0
 11
-144.7100135651394
 21
226.8741027675409
 31
0.0
  0
LINE
  5
131
330
1F
100
AcDbEntity
  8
0
  6
Continuous
 62
     7
100
AcDbLine
 10
-146.659945026655
 20
223.9741027675405
 30
0.0
 11
-146.159945026655
 21
223.9741027675405
 31
0.0
  0
LINE
  5
132
330
1F
100
AcDbEntity
  8
0
  6
Continuous
 62
     7
100
AcDbLine
 10
-139.4826578660957
 20
249.9416060166099
 30
0.0
 11
-139.4833731165549
 21
249.7038022106564
 31
0.0
  0
LINE
  5
133
330
1F
100
AcDbEntity
  8
0
  6
Continuous
 62
     2
100
AcDbLine
 10
-147.1303453406185
 20
248.6536719920288
 30
0.0
 11
-147.009914565106
 21
248.7741027675412
 31
0.0
  0
LINE
  5
134
330
1F
100
AcDbEntity
  8
0
  6
Continuous
 62
     7
100
AcDbLine
 10
-148.1803948406352
 20
248.6536719920291
 30
0.0
 11
-147.1303453406185
 21
248.6536719920288
 31
0.0
  0
LINE
  5
135
330
1F
100
AcDbEntity
  8
0
  6
Continuous
 62
     2
100
AcDbLine
 10
-148.1803948406352
 20
248.6536719920291
 30
0.0
 11
-148.0599640651228
 21
248.7741027675413
 31
0.0
  0
LINE
  5
136
330
1F
100
AcDbEntity
  8
0
  6
Continuous
 62
     2
100
AcDbLine
 10
-148.6803758021673
 20
249.1536529535612
 30
0.0
 11
-148.5599450266549
 21
249.2740837290733
 31
0.0
  0
LINE
  5
137
330
1F
100
AcDbEntity
  8
0
  6
Continuous
 62
     7
100
AcDbLine
 10
-148.0599640651228
 20
248.7741027675413
 30
0.0
 11
-147.009914565106
 21
248.7741027675412
 31
0.0
  0
LINE
  5
138
330
1F
100
AcDbEntity
  8
0
  6
Continuous
 62
     7
100
AcDbLine
 10
-134.309945026655
 20
250.6380398829641
 30
0.0
 11
-135.209945026655
 21
250.6380398829641
 31
0.0
  0
LINE
  5
139
330
1F
100
AcDbEntity
  8
0
  6
Continuous
 62
     7
100
AcDbLine
 10
-135.2097769651468
 20
249.6380398829641
 30
0.0
 11
-134.309945026655
 21
249.6380398829641
 31
0.0
  0
LINE
  5
13A
330
1F
100
AcDbEntity
  8
0
  6
Continuous
 62
     7
100
AcDbLine
 10
-135.209945026655
 20
249.6380398829641
 30
0.0
 11
-135.2097769651468
 21
249.6380398829641
 31
0.0
  0
LINE
  5
13B
330
1F
100
AcDbEntity
  8
0
  6
Continuous
 62
     7
100
AcDbLine
 10
-134.309945026655
 20
249.6380398829641
 30
0.0
 11
-134.309945026655
 21
250.6380398829641
 31
0.0
  0
LINE
  5
13C
330
1F
100
AcDbEntity
  8
0
  6
Continuous
 62
     7
100
AcDbLine
 10
-139.0771878277706
 20
250.4419131370393
 30
0.0
 11
-139.1640776799459
 21
250.4421744785532
 31
0.0
  0
LINE
  5
13D
330
1F
100
AcDbEntity
  8
0
  6
Continuous
 62
     7
100
AcDbLine
 10
-135.209945026655
 20
249.6380398829641
 30
0.0
 11
-135.209945026655
 21
249.6298425444565
 31
0.0
  0
LINE
  5
13E
330
1F
100
AcDbEntity
  8
0
  6
Continuous
 62
     7
100
AcDbLine
 10
-135.209945026655
 20
250.6380398829641
 30
0.0
 11
-135.209945026655
 21
249.6380398829641
 31
0.0
  0
LINE
  5
13F
330
1F
100
AcDbEntity
  8
0
  6
Continuous
 62
     7
100
AcDbLine
 10
-148.0599640651228
 20
251.5741027675409
 30
0.0
 11
-147.3099145651061
 21
251.5741027675409
 31
0.0
  0
LINE
  5
140
330
1F
100
AcDbEntity
  8
0
  6
Continuous
 62
     7
100
AcDbLine
 10
-148.5599450266549
 20
249.2740837290733
 30
0.0
 11
-148.5599450266549
 21
251.0741218060089
 31
0.0
  0
LINE
  5
141
330
1F
100
AcDbEntity
  8
0
  6
Continuous
 62
     7
100
AcDbLine
 10
-135.209945026655
 20
251.3101656521172
 30
0.0
 11
-134.309945026655
 21
251.3101656521171
 31
0.0
  0
LINE
  5
142
330
1F
100
AcDbEntity
  8
0
  6
Continuous
 62
     2
100
AcDbLine
 10
-148.6803758021673
 20
251.1945525815217
 30
0.0
 11
-148.5599450266549
 21
251.0741218060089
 31
0.0
  0
LINE
  5
143
330
1F
100
AcDbEntity
  8
0
  6
Continuous
 62
     7
100
AcDbLine
 10
-135.209945026655
 20
251.3101656521172
 30
0.0
 11
-135.209945026655
 21
250.6380398829641
 31
0.0
  0
LINE
  5
144
330
1F
100
AcDbEntity
  8
0
  6
Continuous
 62
     7
100
AcDbLine
 10
-148.0599640651228
 20
246.5741027675413
 30
0.0
 11
-147.009914565106
 21
246.5741027675413
 31
0.0
  0
LINE
  5
145
330
1F
100
AcDbEntity
  8
0
  6
Continuous
 62
     7
100
AcDbLine
 10
-139.2173719289156
 20
248.4347037113967
 30
0.0
 11
-139.0832261922239
 21
248.4343002367787
 31
0.0
  0
LINE
  5
146
330
1F
100
AcDbEntity
  8
0
  6
Continuous
 62
     7
100
AcDbLine
 10
-139.212667781665
 20
249.9987210505519
 30
0.0
 11
-139.2173719289156
 21
248.4347037113967
 31
0.0
  0
LINE
  5
147
330
1F
100
AcDbEntity
  8
0
  6
Continuous
 62
     7
100
AcDbLine
 10
-139.0832261922239
 20
248.4343002367787
 30
0.0
 11
-139.0771878277706
 21
250.4419131370393
 31
0.0
  0
LINE
  5
148
330
1F
100
AcDbEntity
  8
0
  6
Continuous
 62
     7
100
AcDbLine
 10
-148.1803948406352
 20
246.6945335430542
 30
0.0
 11
-147.1303453406185
 21
246.6945335430538
 31
0.0
  0
LINE
  5
149
330
1F
100
AcDbEntity
  8
0
  6
Continuous
 62
     2
100
AcDbLine
 10
-148.0599640651228
 20
246.5741027675413
 30
0.0
 11
-148.1803948406352
 21
246.6945335430542
 31
0.0
  0
LINE
  5
14A
330
1F
100
AcDbEntity
  8
0
  6
Continuous
 62
     7
100
AcDbLine
 10
-148.6803758021673
 20
251.1945525815217
 30
0.0
 11
-148.6803758021673
 21
249.1536529535612
 31
0.0
  0
LINE
  5
14B
330
1F
100
AcDbEntity
  8
0
  6
Continuous
 62
     2
100
AcDbLine
 10
-136.9394952126748
 20
239.6536719920288
 30
0.0
 11
-137.0599259881873
 21
239.7741027675413
 31
0.0
  0
LINE
  5
14C
330
1F
100
AcDbEntity
  8
0
  6
Continuous
 62
     2
100
AcDbLine
 10
-136.4395142511427
 20
240.1536529535612
 30
0.0
 11
-136.5599450266553
 21
240.2740837290733
 31
0.0
  0
LINE
  5
14D
330
1F
100
AcDbEntity
  8
0
  6
Continuous
 62
     2
100
AcDbLine
 10
-136.439514251143
 20
230.7536529535605
 30
0.0
 11
-136.5599450266556
 21
230.8740837290729
 31
0.0
  0
LINE
  5
14E
330
1F
100
AcDbEntity
  8
0
  6
Continuous
 62
     2
100
AcDbLine
 10
-136.9394952126751
 20
230.2536719920284
 30
0.0
 11
-137.0599259881877
 21
230.3741027675409
 31
0.0
  0
LINE
  5
14F
330
1F
100
AcDbEntity
  8
0
  6
Continuous
 62
     2
100
AcDbLine
 10
-138.6099450266581
 20
229.5741332290896
 30
0.0
 11
-138.4895142511456
 21
229.4537024535772
 31
0.0
  0
LINE
  5
150
330
1F
100
AcDbEntity
  8
0
  6
Continuous
 62
     7
100
AcDbLine
 10
-138.4895142511457
 20
228.5536034535438
 30
0.0
 11
-138.4895142511456
 21
229.4537024535772
 31
0.0
  0
LINE
  5
151
330
1F
100
AcDbEntity
  8
0
  6
Continuous
 62
     7
100
AcDbLine
 10
-138.6099450266581
 20
229.5741332290896
 30
0.0
 11
-138.6099450266582
 21
228.6740342290563
 31
0.0
  0
LINE
  5
152
330
1F
100
AcDbEntity
  8
0
  6
Continuous
 62
     2
100
AcDbLine
 10
-137.8099754882068
 20
230.3741027675409
 30
0.0
 11
-137.6895447126942
 21
230.2536719920284
 31
0.0
  0
LINE
  5
153
330
1F
100
AcDbEntity
  8
0
  6
Continuous
 62
     7
100
AcDbLine
 10
-137.0599259881877
 20
230.3741027675409
 30
0.0
 11
-137.8099754882068
 21
230.3741027675409
 31
0.0
  0
LINE
  5
154
330
1F
100
AcDbEntity
  8
0
  6
Continuous
 62
     2
100
AcDbLine
 10
-138.1099754882034
 20
239.7741027675413
 30
0.0
 11
-137.9895447126908
 21
239.6536719920288
 31
0.0
  0
LINE
  5
155
330
1F
100
AcDbEntity
  8
0
  6
Continuous
 62
     7
100
AcDbLine
 10
-137.9895447126908
 20
239.6536719920288
 30
0.0
 11
-136.9394952126748
 21
239.6536719920288
 31
0.0
  0
LINE
  5
156
330
1F
100
AcDbEntity
  8
0
  6
Continuous
 62
     7
100
AcDbLine
 10
-138.1099754882034
 20
239.7741027675413
 30
0.0
 11
-137.0599259881873
 21
239.7741027675413
 31
0.0
  0
LINE
  5
157
330
1F
100
AcDbEntity
  8
0
  6
Continuous
 62
     7
100
AcDbLine
 10
-136.9394952126749
 20
237.6945335430537
 30
0.0
 11
-137.9895447126908
 21
237.6945335430537
 31
0.0
  0
LINE
  5
158
330
1F
100
AcDbEntity
  8
0
  6
Continuous
 62
     2
100
AcDbLine
 10
-136.9394952126749
 20
237.6945335430537
 30
0.0
 11
-137.0599259881874
 21
237.5741027675413
 31
0.0
  0
LINE
  5
159
330
1F
100
AcDbEntity
  8
0
  6
Continuous
 62
     7
100
AcDbLine
 10
-137.0599259881874
 20
237.5741027675413
 30
0.0
 11
-138.1099754882034
 21
237.5741027675413
 31
0.0
  0
LINE
  5
15A
330
1F
100
AcDbEntity
  8
0
  6
Continuous
 62
     2
100
AcDbLine
 10
-138.9099450266547
 20
238.9741332290899
 30
0.0
 11
-138.7895142511421
 21
238.8537024535775
 31
0.0
  0
LINE
  5
15B
330
1F
100
AcDbEntity
  8
0
  6
Continuous
 62
     7
100
AcDbLine
 10
-138.9099450266547
 20
238.9741332290899
 30
0.0
 11
-138.9099450266547
 21
238.3740723059926
 31
0.0
  0
LINE
  5
15C
330
1F
100
AcDbEntity
  8
0
  6
Continuous
 62
     2
100
AcDbLine
 10
-138.7895142511421
 20
238.4945030815051
 30
0.0
 11
-138.9099450266547
 21
238.3740723059926
 31
0.0
  0
LINE
  5
15D
330
1F
100
AcDbEntity
  8
0
  6
Continuous
 62
     2
100
AcDbLine
 10
-137.9895447126908
 20
237.6945335430537
 30
0.0
 11
-138.1099754882034
 21
237.5741027675413
 31
0.0
  0
LINE
  5
15E
330
1F
100
AcDbEntity
  8
0
  6
Continuous
 62
     7
100
AcDbLine
 10
-138.7895142511421
 20
238.8537024535775
 30
0.0
 11
-138.7895142511421
 21
238.4945030815051
 31
0.0
  0
LINE
  5
15F
330
1F
100
AcDbEntity
  8
0
  6
Continuous
 62
     7
100
AcDbLine
 10
-136.439514251143
 20
230.7536529535605
 30
0.0
 11
-136.4395142511428
 21
237.1945525815216
 31
0.0
  0
LINE
  5
160
330
1F
100
AcDbEntity
  8
0
  6
Continuous
 62
     2
100
AcDbLine
 10
-136.4395142511428
 20
237.1945525815216
 30
0.0
 11
-136.5599450266554
 21
237.0741218060092
 31
0.0
  0
LINE
  5
161
330
1F
100
AcDbEntity
  8
0
  6
Continuous
 62
     7
100
AcDbLine
 10
-136.5599450266554
 20
237.0741218060092
 30
0.0
 11
-136.5599450266556
 21
230.8740837290729
 31
0.0
  0
LINE
  5
162
330
1F
100
AcDbEntity
  8
0
  6
Continuous
 62
     7
100
AcDbLine
 10
-141.2381221135551
 20
237.9655750289833
 30
0.0
 11
-141.2540124236466
 21
237.7506828229907
 31
0.0
  0
LINE
  5
163
330
1F
100
AcDbEntity
  8
0
  6
Continuous
 62
     7
100
AcDbLine
 10
-141.503908026655
 20
238.2925954347806
 30
0.0
 11
-141.3698952531897
 21
238.2479848423892
 31
0.0
  0
LINE
  5
164
330
1F
100
AcDbEntity
  8
0
  6
Continuous
 62
     7
100
AcDbLine
 10
-141.386269383122
 20
237.3654081347424
 30
0.0
 11
-141.5205114035293
 21
237.333799558559
 31
0.0
  0
LINE
  5
165
330
1F
100
AcDbEntity
  8
0
  6
Continuous
 62
     2
100
AcDbLine
 10
-148.5599450266549
 20
246.0741218060093
 30
0.0
 11
-148.6803758021673
 21
246.1945525815221
 31
0.0
  0
LINE
  5
166
330
1F
100
AcDbEntity
  8
0
  6
Continuous
 62
     7
100
AcDbLine
 10
-145.9093336967991
 20
233.5344105031168
 30
0.0
 11
-146.414753024036
 21
232.2401930822236
 31
0.0
  0
LINE
  5
167
330
1F
100
AcDbEntity
  8
0
  6
Continuous
 62
     7
100
AcDbLine
 10
-145.803475292066
 20
232.2383545217485
 30
0.0
 11
-145.7995780940513
 21
233.5340803875203
 31
0.0
  0
LINE
  5
168
330
1F
100
AcDbEntity
  8
0
  6
Continuous
 62
     7
100
AcDbLine
 10
-145.659945026655
 20
255.9741027675415
 30
0.0
 11
-145.659945026655
 21
257.9741027675405
 31
0.0
  0
LINE
  5
169
330
1F
100
AcDbEntity
  8
0
  6
Continuous
 62
     2
100
AcDbLine
 10
-146.159945026655
 20
223.9741027675405
 30
0.0
 11
-146.159945026655
 21
225.9741027675407
 31
0.0
  0
LINE
  5
16A
330
1F
100
AcDbEntity
  8
0
  6
Continuous
 62
     7
100
AcDbLine
 10
-145.9397392705021
 20
231.5344928787351
 30
0.0
 11
-145.8055935338104
 21
231.5340894041171
 31
0.0
  0
LINE
  5
16B
330
1F
100
AcDbEntity
  8
0
  6
Continuous
 62
     7
100
AcDbLine
 10
-145.9382995997061
 20
232.013149257385
 30
0.0
 11
-145.9397392705021
 21
231.5344928787351
 31
0.0
  0
LINE
  5
16C
330
1F
100
AcDbEntity
  8
0
  6
Continuous
 62
     7
100
AcDbLine
 10
-145.8055935338104
 20
231.5340894041171
 30
0.0
 11
-145.8041538630144
 21
232.012745782767
 31
0.0
  0
LINE
  5
16D
330
1F
100
AcDbEntity
  8
0
  6
Continuous
 62
     7
100
AcDbLine
 10
-145.7995780940513
 20
233.5340803875203
 30
0.0
 11
-145.9093336967991
 21
233.5344105031168
 31
0.0
  0
LINE
  5
16E
330
1F
100
AcDbEntity
  8
0
  6
Continuous
 62
     7
100
AcDbLine
 10
-148.559945026655
 20
230.874083729073
 30
0.0
 11
-148.5599450266549
 21
246.0741218060093
 31
0.0
  0
LINE
  5
16F
330
1F
100
AcDbEntity
  8
0
  6
Continuous
 62
     7
100
AcDbLine
 10
-146.4154315949844
 20
232.0145843432421
 30
0.0
 11
-145.9382995997061
 21
232.013149257385
 31
0.0
  0
LINE
  5
170
330
1F
100
AcDbEntity
  8
0
  6
Continuous
 62
     7
100
AcDbLine
 10
-146.414753024036
 20
232.2401930822236
 30
0.0
 11
-146.4154315949844
 21
232.0145843432421
 31
0.0
  0
LINE
  5
171
330
1F
100
AcDbEntity
  8
0
  6
Continuous
 62
     2
100
AcDbLine
 10
-147.3099145651063
 20
230.3741027675409
 30
0.0
 11
-147.4303453406187
 21
230.2536719920284
 31
0.0
  0
LINE
  5
172
330
1F
100
AcDbEntity
  8
0
  6
Continuous
 62
     7
100
AcDbLine
 10
-146.659945026655
 20
223.9741027675405
 30
0.0
 11
-146.659945026655
 21
225.9741027675407
 31
0.0
  0
LINE
  5
173
330
1F
100
AcDbEntity
  8
0
  6
Continuous
 62
     2
100
AcDbLine
 10
-148.1803948406352
 20
251.6945335430534
 30
0.0
 11
-148.0599640651228
 21
251.5741027675409
 31
0.0
  0
LINE
  5
174
330
1F
100
AcDbEntity
  8
0
  6
Continuous
 62
     7
100
AcDbLine
 10
-147.4303453406185
 20
251.6945335430538
 30
0.0
 11
-148.1803948406352
 21
251.6945335430534
 31
0.0
  0
LINE
  5
175
330
1F
100
AcDbEntity
  8
0
  6
Continuous
 62
     7
100
AcDbLine
 10
-146.159945026655
 20
225.9741027675407
 30
0.0
 11
-146.659945026655
 21
225.9741027675407
 31
0.0
  0
LINE
  5
176
330
1F
100
AcDbEntity
  8
0
  6
Continuous
 62
     7
100
AcDbLine
 10
-148.6803758021673
 20
246.1945525815221
 30
0.0
 11
-148.6803758021674
 21
230.7536529535606
 31
0.0
  0
LINE
  5
177
330
1F
100
AcDbEntity
  8
0
  6
Continuous
 62
     7
100
AcDbLine
 10
-146.659945026655
 20
225.9741027675407
 30
0.0
 11
-149.909945026655
 21
225.9741027675405
 31
0.0
  0
LINE
  5
178
330
1F
100
AcDbEntity
  8
0
  6
Continuous
 62
     7
100
AcDbLine
 10
-149.909945026655
 20
255.9741027675411
 30
0.0
 11
-145.659945026655
 21
255.9741027675415
 31
0.0
  0
LINE
  5
179
330
1F
100
AcDbEntity
  8
0
  6
Continuous
 62
     7
100
AcDbLine
 10
-149.909945026655
 20
225.9741027675405
 30
0.0
 11
-149.909945026655
 21
255.9741027675411
 31
0.0
  0
LINE
  5
17A
330
1F
100
AcDbEntity
  8
0
  6
Continuous
 62
     7
100
AcDbLine
 10
-139.459945026655
 20
257.9741027675405
 30
0.0
 11
-139.959945026655
 21
257.9741027675405
 31
0.0
  0
LINE
  5
17B
330
1F
100
AcDbEntity
  8
0
  6
Continuous
 62
     7
100
AcDbLine
 10
-138.6099450266548
 20
253.2741713060251
 30
0.0
 11
-138.6099450266549
 21
252.3740723059923
 31
0.0
  0
LINE
  5
17C
330
1F
100
AcDbEntity
  8
0
  6
Continuous
 62
     2
100
AcDbLine
 10
-140.2894457126577
 20
255.1945335430534
 30
0.0
 11
-140.4098764881703
 21
255.0741027675409
 31
0.0
  0
LINE
  5
17D
330
1F
100
AcDbEntity
  8
0
  6
Continuous
 62
     2
100
AcDbLine
 10
-138.959945026655
 20
225.9741027675407
 30
0.0
 11
-138.959945026655
 21
223.9741027675405
 31
0.0
  0
LINE
  5
17E
330
1F
100
AcDbEntity
  8
0
  6
Continuous
 62
     7
100
AcDbLine
 10
-139.459945026655
 20
257.9741027675405
 30
0.0
 11
-139.459945026655
 21
255.9741027675415
 31
0.0
  0
LINE
  5
17F
330
1F
100
AcDbEntity
  8
0
  6
Continuous
 62
     7
100
AcDbLine
 10
-139.959945026655
 20
257.9741027675405
 30
0.0
 11
-145.159945026655
 21
257.9741027675404
 31
0.0
  0
LINE
  5
180
330
1F
100
AcDbEntity
  8
0
  6
Continuous
 62
     7
100
AcDbLine
 10
-140.4098764881703
 20
255.0741027675409
 30
0.0
 11
-144.7100135651393
 21
255.0741027675409
 31
0.0
  0
LINE
  5
181
330
1F
100
AcDbEntity
  8
0
  6
Continuous
 62
     2
100
AcDbLine
 10
-145.159945026655
 20
255.9741027675415
 30
0.0
 11
-145.159945026655
 21
257.9741027675404
 31
0.0
  0
LINE
  5
182
330
1F
100
AcDbEntity
  8
0
  6
Continuous
 62
     7
100
AcDbLine
 10
-134.309945026655
 20
252.3101656521171
 30
0.0
 11
-135.2097769651468
 21
252.3101656521172
 31
0.0
  0
LINE
  5
183
330
1F
100
AcDbEntity
  8
0
  6
Continuous
 62
     7
100
AcDbLine
 10
-135.2097769651468
 20
252.3101656521172
 30
0.0
 11
-135.209945026655
 21
252.3101656521172
 31
0.0
  0
LINE
  5
184
330
1F
100
AcDbEntity
  8
0
  6
Continuous
 62
     7
100
AcDbLine
 10
-135.209945026655
 20
252.3183629906245
 30
0.0
 11
-135.209945026655
 21
252.3101656521172
 31
0.0
  0
LINE
  5
185
330
1F
100
AcDbEntity
  8
0
  6
Continuous
 62
     7
100
AcDbLine
 10
-134.309945026655
 20
251.3101656521171
 30
0.0
 11
-134.309945026655
 21
252.3101656521171
 31
0.0
  0
LINE
  5
186
330
1F
100
AcDbEntity
  8
0
  6
Continuous
 62
     7
100
AcDbLine
 10
-135.209945026655
 20
252.3101656521172
 30
0.0
 11
-135.209945026655
 21
251.3101656521172
 31
0.0
  0
LINE
  5
187
330
1F
100
AcDbEntity
  8
0
  6
Continuous
 62
     7
100
AcDbLine
 10
-145.159945026655
 20
255.9741027675415
 30
0.0
 11
-139.959945026655
 21
255.9741027675415
 31
0.0
  0
LINE
  5
188
330
1F
100
AcDbEntity
  8
0
  6
Continuous
 62
     7
100
AcDbLine
 10
-139.459945026655
 20
255.9741027675415
 30
0.0
 11
-135.209945026655
 21
255.9741027675414
 31
0.0
  0
LINE
  5
189
330
1F
100
AcDbEntity
  8
0
  6
Continuous
 62
     7
100
AcDbLine
 10
-140.2894457126577
 20
255.1945335430534
 30
0.0
 11
-144.8304443406516
 21
255.1945335430534
 31
0.0
  0
LINE
  5
18A
330
1F
100
AcDbEntity
  8
0
  6
Continuous
 62
     7
100
AcDbLine
 10
-139.959945026655
 20
255.9741027675415
 30
0.0
 11
-139.459945026655
 21
255.9741027675415
 31
0.0
  0
LINE
  5
18B
330
1F
100
AcDbEntity
  8
0
  6
Continuous
 62
     2
100
AcDbLine
 10
-138.6099450266549
 20
252.3740723059923
 30
0.0
 11
-138.4895142511423
 21
252.4945030815048
 31
0.0
  0
LINE
  5
18C
330
1F
100
AcDbEntity
  8
0
  6
Continuous
 62
     7
100
AcDbLine
 10
-138.4895142511423
 20
252.4945030815048
 30
0.0
 11
-138.4895142511422
 21
253.3946020815376
 31
0.0
  0
LINE
  5
18D
330
1F
100
AcDbEntity
  8
0
  6
Continuous
 62
     7
100
AcDbLine
 10
-135.209945026655
 20
255.9741027675414
 30
0.0
 11
-135.209945026655
 21
252.3183629906245
 31
0.0
  0
LINE
  5
18E
330
1F
100
AcDbEntity
  8
0
  6
Continuous
 62
     2
100
AcDbLine
 10
-137.8099754882036
 20
251.5741027675409
 30
0.0
 11
-137.689544712691
 21
251.6945335430537
 31
0.0
  0
LINE
  5
18F
330
1F
100
AcDbEntity
  8
0
  6
Continuous
 62
     7
100
AcDbLine
 10
-136.9394952126744
 20
251.6945335430537
 30
0.0
 11
-137.689544712691
 21
251.6945335430537
 31
0.0
  0
LINE
  5
190
330
1F
100
AcDbEntity
  8
1
  6
DOT_CENTER
 62
     2
100
AcDbLine
 10
-141.7899450266549
 20
237.8491027675455
 30
0.0
 11
-147.7299450266549
 21
237.8491027675455
 31
0.0
  0
LINE
  5
191
330
1F
100
AcDbEntity
  8
1
  6
DOT_CENTER
 62
     2
100
AcDbLine
 10
-144.7599450266549
 20
240.8191027675455
 30
0.0
 11
-144.7599450266549
 21
234.8791027675455
 31
0.0
  0
LINE
  5
192
330
1F
100
AcDbEntity
  8
1
  6
DOT_CENTER
 62
     2
100
AcDbLine
 10
-139.5899450266552
 20
230.5491027675457
 30
0.0
 11
-145.529945026655
 21
230.5491027675457
 31
0.0
  0
LINE
  5
193
330
1F
100
AcDbEntity
  8
1
  6
DOT_CENTER
 62
     2
100
AcDbLine
 10
-142.5599450266551
 20
233.5191027675456
 30
0.0
 11
-142.5599450266551
 21
227.5791027675458
 31
0.0
  0
LINE
  5
194
330
1F
100
AcDbEntity
  8
1
  6
DOT_CENTER
 62
     2
100
AcDbLine
 10
-137.3899450266549
 20
244.0991027675455
 30
0.0
 11
-143.3299450266549
 21
244.0991027675455
 31
0.0
  0
LINE
  5
195
330
1F
100
AcDbEntity
  8
1
  6
DOT_CENTER
 62
     2
100
AcDbLine
 10
-140.3599450266549
 20
247.0691027675455
 30
0.0
 11
-140.3599450266549
 21
241.1291027675455
 31
0.0
  0
LINE
  5
196
330
1F
100
AcDbEntity
  8
1
  6
DOT_CENTER
 62
     2
100
AcDbLine
 10
-139.5899450266546
 20
251.3991027675457
 30
0.0
 11
-145.5299450266548
 21
251.3991027675457
 31
0.0
  0
LINE
  5
197
330
1F
100
AcDbEntity
  8
1
  6
DOT_CENTER
 62
     2
100
AcDbLine
 10
-142.5599450266547
 20
254.3691027675458
 30
0.0
 11
-142.5599450266547
 21
248.4291027675457
 31
0.0
  0
LINE
  5
198
330
1F
100
AcDbEntity
  8
0
  6
Continuous
 62
     7
100
AcDbLine
 10
-137.4126652129933
 20
187.3965957437743
 30
0.0
 11
-137.259945026655
 21
169.8965957437742
 31
0.0
  0
LINE
  5
199
330
1F
100
AcDbEntity
  8
0
  6
Continuous
 62
     7
100
AcDbLine
 10
-135.2097769651468
 20
187.3965957437743
 30
0.0
 11
-135.2097769651468
 21
178.3660028599782
 31
0.0
  0
LINE
  5
19A
330
1F
100
AcDbEntity
  8
0
  6
Continuous
 62
     7
100
AcDbLine
 10
-135.209945026655
 20
178.3965957437746
 30
0.0
 11
-135.209945026655
 21
187.3965957437743
 31
0.0
  0
LINE
  5
19B
330
1F
100
AcDbEntity
  8
0
  6
Continuous
 62
     7
100
AcDbLine
 10
-135.209945026655
 20
178.3660028599782
 30
0.0
 11
-135.209945026655
 21
178.3965957437746
 31
0.0
  0
LINE
  5
19C
330
1F
100
AcDbEntity
  8
0
  6
Continuous
 62
     7
100
AcDbLine
 10
-135.209945026655
 20
177.3965957437743
 30
0.0
 11
-135.209945026655
 21
178.3660028599782
 31
0.0
  0
LINE
  5
19D
330
1F
100
AcDbEntity
  8
0
  6
Continuous
 62
     7
100
AcDbLine
 10
-137.259945026655
 20
169.8965957437742
 30
0.0
 11
-135.209945026655
 21
169.8965957437743
 31
0.0
  0
LINE
  5
19E
330
1F
100
AcDbEntity
  8
0
  6
Continuous
 62
     7
100
AcDbLine
 10
-135.209945026655
 20
153.0965957437748
 30
0.0
 11
-135.209945026655
 21
169.8965957437743
 31
0.0
  0
LINE
  5
19F
330
1F
100
AcDbEntity
  8
0
  6
Continuous
 62
     7
100
AcDbLine
 10
-145.659945026655
 20
187.3965957437743
 30
0.0
 11
-139.459945026655
 21
187.3965957437743
 31
0.0
  0
LINE
  5
1A0
330
1F
100
AcDbEntity
  8
0
  6
Continuous
 62
     7
100
AcDbLine
 10
-135.2097769651468
 20
187.3965957437743
 30
0.0
 11
-134.309945026655
 21
187.3965957437743
 31
0.0
  0
LINE
  5
1A1
330
1F
100
AcDbEntity
  8
0
  6
Continuous
 62
     7
100
AcDbLine
 10
-135.209945026655
 20
187.3965957437743
 30
0.0
 11
-135.2097769651468
 21
187.3965957437743
 31
0.0
  0
LINE
  5
1A2
330
1F
100
AcDbEntity
  8
0
  6
Continuous
 62
     7
100
AcDbLine
 10
-137.4126652129933
 20
187.3965957437743
 30
0.0
 11
-135.209945026655
 21
187.3965957437743
 31
0.0
  0
LINE
  5
1A3
330
1F
100
AcDbEntity
  8
0
  6
Continuous
 62
     7
100
AcDbLine
 10
-137.4126652129933
 20
187.3965957437743
 30
0.0
 11
-139.459945026655
 21
187.3965957437743
 31
0.0
  0
LINE
  5
1A4
330
1F
100
AcDbEntity
  8
0
  6
Continuous
 62
     7
100
AcDbLine
 10
-139.959945026655
 20
183.8965957437742
 30
0.0
 11
-145.159945026655
 21
183.8965957437742
 31
0.0
  0
LINE
  5
1A5
330
1F
100
AcDbEntity
  8
0
  6
Continuous
 62
     7
100
AcDbLine
 10
-149.909945026655
 20
169.8965957437743
 30
0.0
 11
-149.909945026655
 21
153.0965957437748
 31
0.0
  0
LINE
  5
1A6
330
1F
100
AcDbEntity
  8
0
  6
Continuous
 62
     7
100
AcDbLine
 10
-149.909945026655
 20
169.8965957437743
 30
0.0
 11
-147.859945026655
 21
169.8965957437743
 31
0.0
  0
LINE
  5
1A7
330
1F
100
AcDbEntity
  8
0
  6
Continuous
 62
     7
100
AcDbLine
 10
-147.859945026655
 20
169.8965957437743
 30
0.0
 11
-147.7072248403167
 21
187.3965957437743
 31
0.0
  0
LINE
  5
1A8
330
1F
100
AcDbEntity
  8
0
  6
Continuous
 62
     7
100
AcDbLine
 10
-149.909945026655
 20
153.0965957437748
 30
0.0
 11
-135.209945026655
 21
153.0965957437748
 31
0.0
  0
LINE
  5
1A9
330
1F
100
AcDbEntity
  8
0
  6
Continuous
 62
     7
100
AcDbLine
 10
-134.309945026655
 20
177.3965957437743
 30
0.0
 11
-134.309945026655
 21
187.3965957437743
 31
0.0
  0
LINE
  5
1AA
330
1F
100
AcDbEntity
  8
0
  6
Continuous
 62
     7
100
AcDbLine
 10
-139.459945026655
 20
184.3965957437742
 30
0.0
 11
-139.459945026655
 21
187.3965957437743
 31
0.0
  0
LINE
  5
1AB
330
1F
100
AcDbEntity
  8
0
  6
Continuous
 62
     7
100
AcDbLine
 10
-135.209945026655
 20
178.3660028599782
 30
0.0
 11
-135.2097769651468
 21
178.3660028599782
 31
0.0
  0
LINE
  5
1AC
330
1F
100
AcDbEntity
  8
0
  6
Continuous
 62
     7
100
AcDbLine
 10
-134.309945026655
 20
177.3965957437743
 30
0.0
 11
-135.209945026655
 21
177.3965957437743
 31
0.0
  0
LINE
  5
1AD
330
1F
100
AcDbEntity
  8
0
  6
Continuous
 62
     7
100
AcDbLine
 10
-135.209945026655
 20
169.8965957437743
 30
0.0
 11
-135.209945026655
 21
177.3965957437743
 31
0.0
  0
LINE
  5
1AE
330
1F
100
AcDbEntity
  8
0
  6
Continuous
 62
     7
100
AcDbLine
 10
-149.909945026655
 20
187.396595743774
 30
0.0
 11
-149.909945026655
 21
169.8965957437743
 31
0.0
  0
LINE
  5
1AF
330
1F
100
AcDbEntity
  8
0
  6
Continuous
 62
     7
100
AcDbLine
 10
-145.659945026655
 20
187.3965957437743
 30
0.0
 11
-145.659945026655
 21
184.3965957437742
 31
0.0
  0
LINE
  5
1B0
330
1F
100
AcDbEntity
  8
0
  6
Continuous
 62
     7
100
AcDbLine
 10
-149.909945026655
 20
187.396595743774
 30
0.0
 11
-147.7072248403167
 21
187.3965957437743
 31
0.0
  0
LINE
  5
1B1
330
1F
100
AcDbEntity
  8
0
  6
Continuous
 62
     7
100
AcDbLine
 10
-145.659945026655
 20
187.3965957437743
 30
0.0
 11
-147.7072248403167
 21
187.3965957437743
 31
0.0
  0
LINE
  5
1B2
330
1F
100
AcDbEntity
  8
0
  6
Continuous
 62
     7
100
AcDbLine
 10
-46.14266457232841
 20
187.3965957437743
 30
0.0
 11
-45.98994438599034
 21
169.8965957437743
 31
0.0
  0
LINE
  5
1B3
330
1F
100
AcDbEntity
  8
0
  6
Continuous
 62
     7
100
AcDbLine
 10
-71.98994438599036
 20
169.8965957437746
 30
0.0
 11
-71.83722419965186
 21
187.3965957437743
 31
0.0
  0
LINE
  5
1B4
330
1F
100
AcDbEntity
  8
0
  6
Continuous
 62
     7
100
AcDbLine
 10
-73.98994438598999
 20
183.8965957437746
 30
0.0
 11
-73.98994438599017
 21
169.8965957437746
 31
0.0
  0
LINE
  5
1B5
330
1F
100
AcDbEntity
  8
0
  6
Continuous
 62
     7
100
AcDbLine
 10
-71.98994438599036
 20
169.8965957437746
 30
0.0
 11
-73.98994438599017
 21
169.8965957437746
 31
0.0
  0
LINE
  5
1B6
330
1F
100
AcDbEntity
  8
0
  6
Continuous
 62
     7
100
AcDbLine
 10
-75.98994438599019
 20
183.8965957437746
 30
0.0
 11
-73.98994438598999
 21
183.8965957437746
 31
0.0
  0
LINE
  5
1B7
330
1F
100
AcDbEntity
  8
0
  6
Continuous
 62
     7
100
AcDbLine
 10
-43.98994438598922
 20
183.8965957437742
 30
0.0
 11
-41.98994438599019
 21
183.8965957437742
 31
0.0
  0
LINE
  5
1B8
330
1F
100
AcDbEntity
  8
0
  6
Continuous
 62
     7
100
AcDbLine
 10
-67.4399443859901
 20
187.3965957437743
 30
0.0
 11
-50.53994438599014
 21
187.3965957437743
 31
0.0
  0
LINE
  5
1B9
330
1F
100
AcDbEntity
  8
0
  6
Continuous
 62
     7
100
AcDbLine
 10
-73.98994438598996
 20
187.3965957437743
 30
0.0
 11
-71.83722419965186
 21
187.3965957437743
 31
0.0
  0
LINE
  5
1BA
330
1F
100
AcDbEntity
  8
0
  6
Continuous
 62
     7
100
AcDbLine
 10
-71.83722419965186
 20
187.3965957437743
 30
0.0
 11
-70.53994438599013
 21
187.3965957437743
 31
0.0
  0
LINE
  5
1BB
330
1F
100
AcDbEntity
  8
0
  6
Continuous
 62
     7
100
AcDbLine
 10
-70.53994438599013
 20
187.3965957437743
 30
0.0
 11
-67.4399443859901
 21
187.3965957437743
 31
0.0
  0
LINE
  5
1BC
330
1F
100
AcDbEntity
  8
0
  6
Continuous
 62
     7
100
AcDbLine
 10
-67.4399443859901
 20
177.3965957437745
 30
0.0
 11
-70.53994438599013
 21
177.3965957437746
 31
0.0
  0
LINE
  5
1BD
330
1F
100
AcDbEntity
  8
0
  6
Continuous
 62
     7
100
AcDbLine
 10
-67.4399443859901
 20
177.3965957437745
 30
0.0
 11
-67.4399443859901
 21
187.3965957437743
 31
0.0
  0
LINE
  5
1BE
330
1F
100
AcDbEntity
  8
0
  6
Continuous
 62
     7
100
AcDbLine
 10
-41.9899443859905
 20
187.3965957437743
 30
0.0
 11
-41.98994438599017
 21
184.3965957437742
 31
0.0
  0
LINE
  5
1BF
330
1F
100
AcDbEntity
  8
0
  6
Continuous
 62
     7
100
AcDbLine
 10
-41.98994438599017
 20
184.3965957437742
 30
0.0
 11
-41.98994438599019
 21
183.8965957437742
 31
0.0
  0
LINE
  5
1C0
330
1F
100
AcDbEntity
  8
0
  6
Continuous
 62
     7
100
AcDbLine
 10
-43.98994438598939
 20
169.8965957437742
 30
0.0
 11
-43.98994438598922
 21
183.8965957437742
 31
0.0
  0
LINE
  5
1C1
330
1F
100
AcDbEntity
  8
0
  6
Continuous
 62
     7
100
AcDbLine
 10
-43.98994438598922
 20
183.8965957437742
 30
0.0
 11
-43.98994438598922
 21
184.3965957437742
 31
0.0
  0
LINE
  5
1C2
330
1F
100
AcDbEntity
  8
0
  6
Continuous
 62
     7
100
AcDbLine
 10
-43.98994438598939
 20
169.8965957437742
 30
0.0
 11
-43.9899443859896
 21
153.0965957437748
 31
0.0
  0
LINE
  5
1C3
330
1F
100
AcDbEntity
  8
0
  6
Continuous
 62
     7
100
AcDbLine
 10
-43.98994438598939
 20
169.8965957437742
 30
0.0
 11
-45.98994438599034
 21
169.8965957437743
 31
0.0
  0
LINE
  5
1C4
330
1F
100
AcDbEntity
  8
0
  6
Continuous
 62
     7
100
AcDbLine
 10
-47.43994438599013
 20
177.3965957437743
 30
0.0
 11
-47.43994438599013
 21
187.3965957437743
 31
0.0
  0
LINE
  5
1C5
330
1F
100
AcDbEntity
  8
0
  6
Continuous
 62
     7
100
AcDbLine
 10
-73.98994438599038
 20
153.0965957437747
 30
0.0
 11
-73.98994438599017
 21
169.8965957437746
 31
0.0
  0
LINE
  5
1C6
330
1F
100
AcDbEntity
  8
0
  6
Continuous
 62
     7
100
AcDbLine
 10
-70.53994438599013
 20
187.3965957437743
 30
0.0
 11
-70.53994438599013
 21
177.3965957437746
 31
0.0
  0
LINE
  5
1C7
330
1F
100
AcDbEntity
  8
0
  6
Continuous
 62
     2
100
AcDbLine
 10
-75.98994438599017
 20
184.3965957437746
 30
0.0
 11
-73.98994438598999
 21
184.3965957437746
 31
0.0
  0
LINE
  5
1C8
330
1F
100
AcDbEntity
  8
0
  6
Continuous
 62
     7
100
AcDbLine
 10
-75.98994438599017
 20
184.3965957437746
 30
0.0
 11
-75.98994438599019
 21
183.8965957437746
 31
0.0
  0
LINE
  5
1C9
330
1F
100
AcDbEntity
  8
0
  6
Continuous
 62
     7
100
AcDbLine
 10
-73.98994438598999
 20
184.3965957437746
 30
0.0
 11
-73.98994438598999
 21
183.8965957437746
 31
0.0
  0
LINE
  5
1CA
330
1F
100
AcDbEntity
  8
0
  6
Continuous
 62
     7
100
AcDbLine
 10
-75.98994438599013
 20
187.3965957437743
 30
0.0
 11
-73.98994438598996
 21
187.3965957437743
 31
0.0
  0
LINE
  5
1CB
330
1F
100
AcDbEntity
  8
0
  6
Continuous
 62
     7
100
AcDbLine
 10
-73.98994438598996
 20
187.3965957437743
 30
0.0
 11
-73.98994438598999
 21
184.3965957437746
 31
0.0
  0
LINE
  5
1CC
330
1F
100
AcDbEntity
  8
0
  6
Continuous
 62
     7
100
AcDbLine
 10
-75.98994438599017
 20
184.3965957437746
 30
0.0
 11
-75.98994438599013
 21
187.3965957437743
 31
0.0
  0
LINE
  5
1CD
330
1F
100
AcDbEntity
  8
0
  6
Continuous
 62
     7
100
AcDbLine
 10
-73.98994438599038
 20
153.0965957437747
 30
0.0
 11
-43.9899443859896
 21
153.0965957437748
 31
0.0
  0
LINE
  5
1CE
330
1F
100
AcDbEntity
  8
0
  6
Continuous
 62
     7
100
AcDbLine
 10
-50.53994438599014
 20
187.3965957437743
 30
0.0
 11
-50.53994438599014
 21
177.3965957437743
 31
0.0
  0
LINE
  5
1CF
330
1F
100
AcDbEntity
  8
0
  6
Continuous
 62
     7
100
AcDbLine
 10
-43.98994438598919
 20
187.3965957437743
 30
0.0
 11
-41.9899443859905
 21
187.3965957437743
 31
0.0
  0
LINE
  5
1D0
330
1F
100
AcDbEntity
  8
0
  6
Continuous
 62
     2
100
AcDbLine
 10
-43.98994438598922
 20
184.3965957437742
 30
0.0
 11
-41.98994438599017
 21
184.3965957437742
 31
0.0
  0
LINE
  5
1D1
330
1F
100
AcDbEntity
  8
0
  6
Continuous
 62
     7
100
AcDbLine
 10
-50.53994438599014
 20
187.3965957437743
 30
0.0
 11
-47.43994438599013
 21
187.3965957437743
 31
0.0
  0
LINE
  5
1D2
330
1F
100
AcDbEntity
  8
0
  6
Continuous
 62
     7
100
AcDbLine
 10
-47.43994438599013
 20
177.3965957437743
 30
0.0
 11
-50.53994438599014
 21
177.3965957437743
 31
0.0
  0
LINE
  5
1D3
330
1F
100
AcDbEntity
  8
0
  6
Continuous
 62
     7
100
AcDbLine
 10
-47.43994438599013
 20
187.3965957437743
 30
0.0
 11
-46.14266457232841
 21
187.3965957437743
 31
0.0
  0
LINE
  5
1D4
330
1F
100
AcDbEntity
  8
0
  6
Continuous
 62
     7
100
AcDbLine
 10
-43.98994438598922
 20
184.3965957437742
 30
0.0
 11
-43.98994438598919
 21
187.3965957437743
 31
0.0
  0
LINE
  5
1D5
330
1F
100
AcDbEntity
  8
0
  6
Continuous
 62
     7
100
AcDbLine
 10
-46.14266457232841
 20
187.3965957437743
 30
0.0
 11
-43.98994438598919
 21
187.3965957437743
 31
0.0
  0
LINE
  5
1D6
330
1F
100
AcDbEntity
  8
0
  6
Continuous
 62
     7
100
AcDbLine
 10
-146.209945026655
 20
111.2677879224396
 30
0.0
 11
-147.909945026655
 21
109.5677879224396
 31
0.0
  0
LINE
  5
1D7
330
1F
100
AcDbEntity
  8
0
  6
Continuous
 62
     7
100
AcDbLine
 10
-137.259945026655
 20
111.2677879224408
 30
0.0
 11
-137.4126652129933
 21
111.1150677361023
 31
0.0
  0
LINE
  5
1D8
330
1F
100
AcDbEntity
  8
0
  6
Continuous
 62
     7
100
AcDbLine
 10
-149.909945026655
 20
106.7177879224406
 30
0.0
 11
-149.909945026655
 21
89.81778792244057
 31
0.0
  0
LINE
  5
1D9
330
1F
100
AcDbEntity
  8
0
  6
Continuous
 62
     7
100
AcDbLine
 10
-149.909945026655
 20
106.7177879224406
 30
0.0
 11
-149.909945026655
 21
109.8177879224406
 31
0.0
  0
LINE
  5
1DA
330
1F
100
AcDbEntity
  8
0
  6
Continuous
 62
     7
100
AcDbLine
 10
-147.7072248403168
 20
111.1150677361023
 30
0.0
 11
-147.859945026655
 21
111.2677879224408
 31
0.0
  0
LINE
  5
1DB
330
1F
100
AcDbEntity
  8
0
  6
Continuous
 62
     7
100
AcDbLine
 10
-147.909945026655
 20
109.5677879224396
 30
0.0
 11
-147.9099450266547
 21
101.3927879224353
 31
0.0
  0
LINE
  5
1DC
330
1F
100
AcDbEntity
  8
0
  6
Continuous
 62
     7
100
AcDbLine
 10
-147.9099450266547
 20
101.3927879224353
 30
0.0
 11
-147.909945026655
 21
86.96778792243963
 31
0.0
  0
LINE
  5
1DD
330
1F
100
AcDbEntity
  8
0
  6
Continuous
 62
     7
100
AcDbLine
 10
-138.4599450266551
 20
115.2677879224406
 30
0.0
 11
-146.659945026655
 21
115.2677879224406
 31
0.0
  0
LINE
  5
1DE
330
1F
100
AcDbEntity
  8
0
  6
Continuous
 62
     7
100
AcDbLine
 10
-138.4599450266551
 20
113.2677879224404
 30
0.0
 11
-138.4599450266551
 21
115.2677879224406
 31
0.0
  0
LINE
  5
1DF
330
1F
100
AcDbEntity
  8
0
  6
Continuous
 62
     7
100
AcDbLine
 10
-135.209945026655
 20
113.2677879224406
 30
0.0
 11
-137.259945026655
 21
113.2677879224406
 31
0.0
  0
LINE
  5
1E0
330
1F
100
AcDbEntity
  8
0
  6
Continuous
 62
     7
100
AcDbLine
 10
-146.659945026655
 20
115.2677879224406
 30
0.0
 11
-146.659945026655
 21
113.2677879224404
 31
0.0
  0
LINE
  5
1E1
330
1F
100
AcDbEntity
  8
0
  6
Continuous
 62
     7
100
AcDbLine
 10
-149.909945026655
 20
111.2677879224406
 30
0.0
 11
-149.909945026655
 21
111.1150677361023
 31
0.0
  0
LINE
  5
1E2
330
1F
100
AcDbEntity
  8
0
  6
Continuous
 62
     7
100
AcDbLine
 10
-136.3850434015153
 20
108.1006977376892
 30
0.0
 11
-136.0378184757633
 21
109.002096497437
 31
0.0
  0
LINE
  5
1E3
330
1F
100
AcDbEntity
  8
0
  6
Continuous
 62
     7
100
AcDbLine
 10
-135.209945026655
 20
109.6120481455246
 30
0.0
 11
-135.209945026655
 21
111.1150677361023
 31
0.0
  0
LINE
  5
1E4
330
1F
100
AcDbEntity
  8
0
  6
Continuous
 62
     7
100
AcDbLine
 10
-135.2099450266551
 20
89.6120481455246
 30
0.0
 11
-135.209945026655
 21
106.9235276993566
 31
0.0
  0
LINE
  5
1E5
330
1F
100
AcDbEntity
  8
0
  6
Continuous
 62
     7
100
AcDbLine
 10
-134.309945026655
 20
87.93172503786404
 30
0.0
 11
-135.209945026655
 21
87.93172503786404
 31
0.0
  0
LINE
  5
1E6
330
1F
100
AcDbEntity
  8
0
  6
Continuous
 62
     7
100
AcDbLine
 10
-135.2099450266551
 20
85.42050810877888
 30
0.0
 11
-135.2099450266551
 21
86.9235276993566
 31
0.0
  0
LINE
  5
1E7
330
1F
100
AcDbEntity
  8
0
  6
Continuous
 62
     7
100
AcDbLine
 10
-135.209945026655
 20
113.2677879224406
 30
0.0
 11
-135.209945026655
 21
111.2677879224408
 31
0.0
  0
LINE
  5
1E8
330
1F
100
AcDbEntity
  8
0
  6
Continuous
 62
     7
100
AcDbLine
 10
-135.209945026655
 20
111.1150677361023
 30
0.0
 11
-135.209945026655
 21
111.2677879224408
 31
0.0
  0
LINE
  5
1E9
330
1F
100
AcDbEntity
  8
0
  6
Continuous
 62
     7
100
AcDbLine
 10
-135.209945026655
 20
85.2677879224408
 30
0.0
 11
-135.2099450266551
 21
85.42050810877888
 31
0.0
  0
LINE
  5
1EA
330
1F
100
AcDbEntity
  8
0
  6
Continuous
 62
     7
100
AcDbLine
 10
-135.209945026655
 20
87.93172503786404
 30
0.0
 11
-135.209945026655
 21
88.60385080701705
 31
0.0
  0
LINE
  5
1EB
330
1F
100
AcDbEntity
  8
0
  6
Continuous
 62
     7
100
AcDbLine
 10
-135.209945026655
 20
107.9317250378641
 30
0.0
 11
-135.209945026655
 21
108.6038508070171
 31
0.0
  0
LINE
  5
1EC
330
1F
100
AcDbEntity
  8
0
  6
Continuous
 62
     7
100
AcDbLine
 10
-135.2097769651469
 20
86.93172503786408
 30
0.0
 11
-134.309945026655
 21
86.93172503786408
 31
0.0
  0
LINE
  5
1ED
330
1F
100
AcDbEntity
  8
0
  6
Continuous
 62
     7
100
AcDbLine
 10
-135.209945026655
 20
88.60385080701705
 30
0.0
 11
-134.309945026655
 21
88.60385080701705
 31
0.0
  0
LINE
  5
1EE
330
1F
100
AcDbEntity
  8
0
  6
Continuous
 62
     7
100
AcDbLine
 10
-134.309945026655
 20
89.60385080701708
 30
0.0
 11
-135.2097769651468
 21
89.60385080701708
 31
0.0
  0
LINE
  5
1EF
330
1F
100
AcDbEntity
  8
0
  6
Continuous
 62
     7
100
AcDbLine
 10
-134.309945026655
 20
88.60385080701705
 30
0.0
 11
-134.309945026655
 21
89.60385080701708
 31
0.0
  0
LINE
  5
1F0
330
1F
100
AcDbEntity
  8
0
  6
Continuous
 62
     7
100
AcDbLine
 10
-134.309945026655
 20
86.93172503786408
 30
0.0
 11
-134.309945026655
 21
87.93172503786404
 31
0.0
  0
LINE
  5
1F1
330
1F
100
AcDbEntity
  8
0
  6
Continuous
 62
     7
100
AcDbLine
 10
-134.309945026655
 20
106.9317250378641
 30
0.0
 11
-135.2097769651468
 21
106.9317250378641
 31
0.0
  0
LINE
  5
1F2
330
1F
100
AcDbEntity
  8
0
  6
Continuous
 62
     7
100
AcDbLine
 10
-134.309945026655
 20
107.9317250378641
 30
0.0
 11
-135.209945026655
 21
107.9317250378641
 31
0.0
  0
LINE
  5
1F3
330
1F
100
AcDbEntity
  8
0
  6
Continuous
 62
     7
100
AcDbLine
 10
-135.209945026655
 20
108.6038508070171
 30
0.0
 11
-134.309945026655
 21
108.6038508070171
 31
0.0
  0
LINE
  5
1F4
330
1F
100
AcDbEntity
  8
0
  6
Continuous
 62
     7
100
AcDbLine
 10
-134.309945026655
 20
109.6038508070171
 30
0.0
 11
-134.309945026655
 21
108.6038508070171
 31
0.0
  0
LINE
  5
1F5
330
1F
100
AcDbEntity
  8
0
  6
Continuous
 62
     7
100
AcDbLine
 10
-135.2097769651468
 20
109.6038508070171
 30
0.0
 11
-134.309945026655
 21
109.6038508070171
 31
0.0
  0
LINE
  5
1F6
330
1F
100
AcDbEntity
  8
0
  6
Continuous
 62
     7
100
AcDbLine
 10
-134.309945026655
 20
107.9317250378641
 30
0.0
 11
-134.309945026655
 21
106.9317250378641
 31
0.0
  0
LINE
  5
1F7
330
1F
100
AcDbEntity
  8
0
  6
Continuous
 62
     7
100
AcDbLine
 10
-136.3823291177216
 20
109.003132693615
 30
0.0
 11
-136.3850434015153
 21
108.1006977376892
 31
0.0
  0
LINE
  5
1F8
330
1F
100
AcDbEntity
  8
0
  6
Continuous
 62
     7
100
AcDbLine
 10
-136.2304167350053
 20
101.4912078669908
 30
0.0
 11
-136.2463070450968
 21
101.2763156609982
 31
0.0
  0
LINE
  5
1F9
330
1F
100
AcDbEntity
  8
0
  6
Continuous
 62
     7
100
AcDbLine
 10
-136.1145339054622
 20
100.9939058475923
 30
0.0
 11
-135.9805211319969
 21
100.9492952552009
 31
0.0
  0
LINE
  5
1FA
330
1F
100
AcDbEntity
  8
0
  6
Continuous
 62
     7
100
AcDbLine
 10
-136.1248960846268
 20
94.69474138314322
 30
0.0
 11
-135.9862551417809
 21
94.66840963639328
 31
0.0
  0
LINE
  5
1FB
330
1F
100
AcDbEntity
  8
0
  6
Continuous
 62
     7
100
AcDbLine
 10
-135.9639177551226
 20
101.9080911314225
 30
0.0
 11
-136.09815977553
 21
101.876482555239
 31
0.0
  0
LINE
  5
1FC
330
1F
100
AcDbEntity
  8
0
  6
Continuous
 62
     7
100
AcDbLine
 10
-136.0378184757633
 20
109.002096497437
 30
0.0
 11
-136.3823291177216
 21
109.003132693615
 31
0.0
  0
LINE
  5
1FD
330
1F
100
AcDbEntity
  8
0
  6
Continuous
 62
     7
100
AcDbLine
 10
-136.1457741554187
 20
95.86249240473083
 30
0.0
 11
-136.6838814855569
 21
95.86411088814162
 31
0.0
  0
LINE
  5
1FE
330
1F
100
AcDbEntity
  8
0
  6
Continuous
 62
     7
100
AcDbLine
 10
-136.6838814855569
 20
95.86411088814162
 30
0.0
 11
-136.6831708200365
 21
96.10039031072355
 31
0.0
  0
LINE
  5
1FF
330
1F
100
AcDbEntity
  8
0
  6
Continuous
 62
     7
100
AcDbLine
 10
-136.6831708200365
 20
96.10039031072355
 30
0.0
 11
-135.9560399518328
 21
96.0982032948965
 31
0.0
  0
LINE
  5
200
330
1F
100
AcDbEntity
  8
0
  6
Continuous
 62
     7
100
AcDbLine
 10
-147.859945026655
 20
113.2677879224406
 30
0.0
 11
-149.909945026655
 21
113.2677879224406
 31
0.0
  0
LINE
  5
201
330
1F
100
AcDbEntity
  8
0
  6
Continuous
 62
     7
100
AcDbLine
 10
-137.259945026655
 20
113.2677879224406
 30
0.0
 11
-137.4126652129933
 21
113.2677879224404
 31
0.0
  0
LINE
  5
202
330
1F
100
AcDbEntity
  8
0
  6
Continuous
 62
     7
100
AcDbLine
 10
-147.7072248403168
 20
113.2677879224404
 30
0.0
 11
-147.859945026655
 21
113.2677879224406
 31
0.0
  0
LINE
  5
203
330
1F
100
AcDbEntity
  8
0
  6
Continuous
 62
     7
100
AcDbLine
 10
-137.209945026655
 20
95.1427857704207
 30
0.0
 11
-137.2099450266551
 21
86.96778792243957
 31
0.0
  0
LINE
  5
204
330
1F
100
AcDbEntity
  8
0
  6
Continuous
 62
     7
100
AcDbLine
 10
-137.2099450266551
 20
109.5677879224396
 30
0.0
 11
-137.209945026655
 21
95.14279007251527
 31
0.0
  0
LINE
  5
205
330
1F
100
AcDbEntity
  8
0
  6
Continuous
 62
     7
100
AcDbLine
 10
-139.4599450266551
 20
81.2677879224406
 30
0.0
 11
-139.4599450266551
 21
83.26778792243964
 31
0.0
  0
LINE
  5
206
330
1F
100
AcDbEntity
  8
0
  6
Continuous
 62
     7
100
AcDbLine
 10
-137.4126652129933
 20
83.26778792243964
 30
0.0
 11
-137.4126652129933
 21
85.42050810877888
 31
0.0
  0
LINE
  5
207
330
1F
100
AcDbEntity
  8
0
  6
Continuous
 62
     7
100
AcDbLine
 10
-137.4126652129933
 20
111.1150677361023
 30
0.0
 11
-137.4126652129933
 21
113.2677879224404
 31
0.0
  0
LINE
  5
208
330
1F
100
AcDbEntity
  8
0
  6
Continuous
 62
     7
100
AcDbLine
 10
-147.859945026655
 20
111.2677879224408
 30
0.0
 11
-147.859945026655
 21
113.2677879224406
 31
0.0
  0
LINE
  5
209
330
1F
100
AcDbEntity
  8
0
  6
Continuous
 62
     7
100
AcDbLine
 10
-137.259945026655
 20
111.2677879224408
 30
0.0
 11
-137.259945026655
 21
113.2677879224406
 31
0.0
  0
LINE
  5
20A
330
1F
100
AcDbEntity
  8
0
  6
Continuous
 62
     7
100
AcDbLine
 10
-149.909945026655
 20
111.2677879224406
 30
0.0
 11
-149.909945026655
 21
113.2677879224406
 31
0.0
  0
LINE
  5
20B
330
1F
100
AcDbEntity
  8
0
  6
Continuous
 62
     7
100
AcDbLine
 10
-138.4599450266551
 20
113.2677879224404
 30
0.0
 11
-137.4126652129933
 21
113.2677879224404
 31
0.0
  0
LINE
  5
20C
330
1F
100
AcDbEntity
  8
0
  6
Continuous
 62
     7
100
AcDbLine
 10
-147.7072248403168
 20
113.2677879224404
 30
0.0
 11
-146.659945026655
 21
113.2677879224404
 31
0.0
  0
LINE
  5
20D
330
1F
100
AcDbEntity
  8
0
  6
Continuous
 62
     7
100
AcDbLine
 10
-146.209945026655
 20
111.2677879224396
 30
0.0
 11
-144.3742975282274
 21
111.2677879224426
 31
0.0
  0
LINE
  5
20E
330
1F
100
AcDbEntity
  8
0
  6
Continuous
 62
     7
100
AcDbLine
 10
-140.7455925250825
 20
111.2677879224429
 30
0.0
 11
-138.909945026655
 21
111.2677879224396
 31
0.0
  0
LINE
  5
20F
330
1F
100
AcDbEntity
  8
0
  6
Continuous
 62
     7
100
AcDbLine
 10
-147.7072248403168
 20
113.2677879224404
 30
0.0
 11
-147.7072248403168
 21
111.1150677361023
 31
0.0
  0
LINE
  5
210
330
1F
100
AcDbEntity
  8
0
  6
Continuous
 62
     7
100
AcDbLine
 10
-141.9832858840956
 20
84.27539102877621
 30
0.0
 11
-142.6606751347911
 21
81.77741712702696
 31
0.0
  0
LINE
  5
211
330
1F
100
AcDbEntity
  8
0
  6
Continuous
 62
     7
100
AcDbLine
 10
-147.7072248403168
 20
85.42050810877886
 30
0.0
 11
-147.7072248403168
 21
83.26778792243964
 31
0.0
  0
LINE
  5
212
330
1F
100
AcDbEntity
  8
0
  6
Continuous
 62
     7
100
AcDbLine
 10
-148.909945026655
 20
89.81778792244059
 30
0.0
 11
-148.909945026655
 21
86.71778792244059
 31
0.0
  0
LINE
  5
213
330
1F
100
AcDbEntity
  8
0
  6
Continuous
 62
     7
100
AcDbLine
 10
-137.259945026655
 20
85.26778792244082
 30
0.0
 11
-135.209945026655
 21
85.2677879224408
 31
0.0
  0
LINE
  5
214
330
1F
100
AcDbEntity
  8
0
  6
Continuous
 62
     7
100
AcDbLine
 10
-137.4126652129933
 20
83.26778792243964
 30
0.0
 11
-137.259945026655
 21
83.26778792243987
 31
0.0
  0
LINE
  5
215
330
1F
100
AcDbEntity
  8
0
  6
Continuous
 62
     7
100
AcDbLine
 10
-135.209945026655
 20
85.2677879224408
 30
0.0
 11
-135.2099450266551
 21
83.26778792243987
 31
0.0
  0
LINE
  5
216
330
1F
100
AcDbEntity
  8
0
  6
Continuous
 62
     7
100
AcDbLine
 10
-137.259945026655
 20
83.26778792243987
 30
0.0
 11
-135.2099450266551
 21
83.26778792243987
 31
0.0
  0
LINE
  5
217
330
1F
100
AcDbEntity
  8
0
  6
Continuous
 62
     7
100
AcDbLine
 10
-145.6599450266551
 20
83.26778792243964
 30
0.0
 11
-147.7072248403168
 21
83.26778792243964
 31
0.0
  0
LINE
  5
218
330
1F
100
AcDbEntity
  8
0
  6
Continuous
 62
     7
100
AcDbLine
 10
-137.4126652129933
 20
83.26778792243964
 30
0.0
 11
-139.4599450266551
 21
83.26778792243964
 31
0.0
  0
LINE
  5
219
330
1F
100
AcDbEntity
  8
0
  6
Continuous
 62
     7
100
AcDbLine
 10
-147.859945026655
 20
83.26778792243987
 30
0.0
 11
-147.7072248403168
 21
83.26778792243964
 31
0.0
  0
LINE
  5
21A
330
1F
100
AcDbEntity
  8
0
  6
Continuous
 62
     7
100
AcDbLine
 10
-145.6599450266551
 20
83.26778792243964
 30
0.0
 11
-145.6599450266551
 21
81.2677879224406
 31
0.0
  0
LINE
  5
21B
330
1F
100
AcDbEntity
  8
0
  6
Continuous
 62
     7
100
AcDbLine
 10
-145.6599450266551
 20
81.2677879224406
 30
0.0
 11
-139.4599450266551
 21
81.2677879224406
 31
0.0
  0
LINE
  5
21C
330
1F
100
AcDbEntity
  8
0
  6
Continuous
 62
     7
100
AcDbLine
 10
-142.6606751347911
 20
81.77741712702696
 30
0.0
 11
-143.3230257863129
 21
84.27942060928008
 31
0.0
  0
LINE
  5
21D
330
1F
100
AcDbEntity
  8
0
  6
Continuous
 62
     7
100
AcDbLine
 10
-147.909945026655
 20
86.96778792243963
 30
0.0
 11
-146.2099450266573
 21
85.26778792244187
 31
0.0
  0
LINE
  5
21E
330
1F
100
AcDbEntity
  8
0
  6
Continuous
 62
     7
100
AcDbLine
 10
-136.5015253187086
 20
86.79997755294212
 30
0.0
 11
-136.4954869542553
 21
88.80759045320274
 31
0.0
  0
LINE
  5
21F
330
1F
100
AcDbEntity
  8
0
  6
Continuous
 62
     7
100
AcDbLine
 10
-138.909945026655
 20
85.26778792244185
 30
0.0
 11
-137.2099450266551
 21
86.96778792243957
 31
0.0
  0
LINE
  5
220
330
1F
100
AcDbEntity
  8
0
  6
Continuous
 62
     7
100
AcDbLine
 10
-136.0953400299243
 20
87.53808847932503
 30
0.0
 11
-136.0960552803834
 21
87.30028467337159
 31
0.0
  0
LINE
  5
221
330
1F
100
AcDbEntity
  8
0
  6
Continuous
 62
     7
100
AcDbLine
 10
-136.4146354665333
 20
86.7997162114282
 30
0.0
 11
-136.5015253187086
 21
86.79997755294212
 31
0.0
  0
LINE
  5
222
330
1F
100
AcDbEntity
  8
0
  6
Continuous
 62
     7
100
AcDbLine
 10
-136.4954869542553
 20
88.80759045320274
 30
0.0
 11
-136.3613412175636
 21
88.80718697858475
 31
0.0
  0
LINE
  5
223
330
1F
100
AcDbEntity
  8
0
  6
Continuous
 62
     7
100
AcDbLine
 10
-136.3613412175636
 20
88.80718697858475
 30
0.0
 11
-136.3660453648142
 21
87.24316963942955
 31
0.0
  0
LINE
  5
224
330
1F
100
AcDbEntity
  8
0
  6
Continuous
 62
     7
100
AcDbLine
 10
-149.909945026655
 20
89.81778792244057
 30
0.0
 11
-148.909945026655
 21
89.81778792244059
 31
0.0
  0
LINE
  5
225
330
1F
100
AcDbEntity
  8
0
  6
Continuous
 62
     7
100
AcDbLine
 10
-148.909945026655
 20
86.71778792244059
 30
0.0
 11
-149.909945026655
 21
86.71778792244059
 31
0.0
  0
LINE
  5
226
330
1F
100
AcDbEntity
  8
0
  6
Continuous
 62
     7
100
AcDbLine
 10
-137.4126652129933
 20
85.42050810877888
 30
0.0
 11
-135.2099450266551
 21
85.42050810877888
 31
0.0
  0
LINE
  5
227
330
1F
100
AcDbEntity
  8
0
  6
Continuous
 62
     7
100
AcDbLine
 10
-137.4126652129933
 20
85.42050810877888
 30
0.0
 11
-137.259945026655
 21
85.26778792244082
 31
0.0
  0
LINE
  5
228
330
1F
100
AcDbEntity
  8
0
  6
Continuous
 62
     7
100
AcDbLine
 10
-137.259945026655
 20
83.26778792243987
 30
0.0
 11
-137.259945026655
 21
85.26778792244082
 31
0.0
  0
LINE
  5
229
330
1F
100
AcDbEntity
  8
0
  6
Continuous
 62
     7
100
AcDbLine
 10
-147.859945026655
 20
85.2677879224408
 30
0.0
 11
-149.909945026655
 21
85.2677879224408
 31
0.0
  0
LINE
  5
22A
330
1F
100
AcDbEntity
  8
0
  6
Continuous
 62
     7
100
AcDbLine
 10
-144.3742975282349
 20
85.26778792244187
 30
0.0
 11
-146.2099450266573
 21
85.26778792244187
 31
0.0
  0
LINE
  5
22B
330
1F
100
AcDbEntity
  8
0
  6
Continuous
 62
     7
100
AcDbLine
 10
-143.3230257863129
 20
84.27942060928008
 30
0.0
 11
-141.9832858840956
 21
84.27539102877621
 31
0.0
  0
LINE
  5
22C
330
1F
100
AcDbEntity
  8
0
  6
Continuous
 62
     7
100
AcDbLine
 10
-138.909945026655
 20
85.26778792244185
 30
0.0
 11
-140.7455925250749
 21
85.26778792244185
 31
0.0
  0
LINE
  5
22D
330
1F
100
AcDbEntity
  8
0
  6
Continuous
 62
     7
100
AcDbLine
 10
-149.909945026655
 20
83.26778792243987
 30
0.0
 11
-147.859945026655
 21
83.26778792243987
 31
0.0
  0
LINE
  5
22E
330
1F
100
AcDbEntity
  8
0
  6
Continuous
 62
     7
100
AcDbLine
 10
-147.859945026655
 20
85.2677879224408
 30
0.0
 11
-147.7072248403168
 21
85.42050810877886
 31
0.0
  0
LINE
  5
22F
330
1F
100
AcDbEntity
  8
0
  6
Continuous
 62
     7
100
AcDbLine
 10
-149.909945026655
 20
85.42050810877886
 30
0.0
 11
-147.7072248403168
 21
85.42050810877886
 31
0.0
  0
LINE
  5
230
330
1F
100
AcDbEntity
  8
0
  6
Continuous
 62
     7
100
AcDbLine
 10
-149.909945026655
 20
83.26778792243987
 30
0.0
 11
-149.909945026655
 21
85.2677879224408
 31
0.0
  0
LINE
  5
231
330
1F
100
AcDbEntity
  8
0
  6
Continuous
 62
     7
100
AcDbLine
 10
-147.859945026655
 20
83.26778792243987
 30
0.0
 11
-147.859945026655
 21
85.2677879224408
 31
0.0
  0
LINE
  5
232
330
1F
100
AcDbEntity
  8
0
  6
Continuous
 62
     7
100
AcDbLine
 10
-149.909945026655
 20
86.71778792244059
 30
0.0
 11
-149.909945026655
 21
89.81778792244057
 31
0.0
  0
LINE
  5
233
330
1F
100
AcDbEntity
  8
0
  6
Continuous
 62
     7
100
AcDbLine
 10
-149.909945026655
 20
85.42050810877886
 30
0.0
 11
-149.909945026655
 21
85.2677879224408
 31
0.0
  0
LINE
  5
234
330
1F
100
AcDbEntity
  8
0
  6
Continuous
 62
     7
100
AcDbLine
 10
-149.909945026655
 20
86.71778792244059
 30
0.0
 11
-149.909945026655
 21
85.42050810877886
 31
0.0
  0
LINE
  5
235
330
1F
100
AcDbEntity
  8
0
  6
Continuous
 62
     7
100
AcDbLine
 10
-135.9051971224432
 20
109.0016976077579
 30
0.0
 11
-136.4106164496801
 21
107.7074801868646
 31
0.0
  0
LINE
  5
236
330
1F
100
AcDbEntity
  8
0
  6
Continuous
 62
     7
100
AcDbLine
 10
-136.5203720524279
 20
107.7078103024612
 30
0.0
 11
-136.5164748544132
 21
109.003536168233
 31
0.0
  0
LINE
  5
237
330
1F
100
AcDbEntity
  8
0
  6
Continuous
 62
     7
100
AcDbLine
 10
-147.7072248403168
 20
111.1150677361023
 30
0.0
 11
-149.909945026655
 21
111.1150677361023
 31
0.0
  0
LINE
  5
238
330
1F
100
AcDbEntity
  8
0
  6
Continuous
 62
     7
100
AcDbLine
 10
-135.209945026655
 20
111.1150677361023
 30
0.0
 11
-137.4126652129933
 21
111.1150677361023
 31
0.0
  0
LINE
  5
239
330
1F
100
AcDbEntity
  8
0
  6
Continuous
 62
     7
100
AcDbLine
 10
-149.909945026655
 20
109.8177879224406
 30
0.0
 11
-148.909945026655
 21
109.8177879224406
 31
0.0
  0
LINE
  5
23A
330
1F
100
AcDbEntity
  8
0
  6
Continuous
 62
     7
100
AcDbLine
 10
-149.909945026655
 20
111.1150677361023
 30
0.0
 11
-149.909945026655
 21
109.8177879224406
 31
0.0
  0
LINE
  5
23B
330
1F
100
AcDbEntity
  8
0
  6
Continuous
 62
     7
100
AcDbLine
 10
-148.909945026655
 20
109.8177879224406
 30
0.0
 11
-148.909945026655
 21
106.7177879224406
 31
0.0
  0
LINE
  5
23C
330
1F
100
AcDbEntity
  8
0
  6
Continuous
 62
     7
100
AcDbLine
 10
-135.9045185514947
 20
109.2273063467393
 30
0.0
 11
-135.9051971224432
 21
109.0016976077579
 31
0.0
  0
LINE
  5
23D
330
1F
100
AcDbEntity
  8
0
  6
Continuous
 62
     7
100
AcDbLine
 10
-136.4106164496801
 20
107.7074801868646
 30
0.0
 11
-136.5203720524279
 21
107.7078103024612
 31
0.0
  0
LINE
  5
23E
330
1F
100
AcDbEntity
  8
0
  6
Continuous
 62
     7
100
AcDbLine
 10
-136.3816505467731
 20
109.2287414325965
 30
0.0
 11
-135.9045185514947
 21
109.2273063467393
 31
0.0
  0
LINE
  5
23F
330
1F
100
AcDbEntity
  8
0
  6
Continuous
 62
     7
100
AcDbLine
 10
-136.5164748544132
 20
109.003536168233
 30
0.0
 11
-136.6643400414483
 21
109.0039809073006
 31
0.0
  0
LINE
  5
240
330
1F
100
AcDbEntity
  8
0
  6
Continuous
 62
     7
100
AcDbLine
 10
-136.6643400414483
 20
109.0039809073006
 30
0.0
 11
-136.6636614704999
 21
109.229589646282
 31
0.0
  0
LINE
  5
241
330
1F
100
AcDbEntity
  8
0
  6
Continuous
 62
     7
100
AcDbLine
 10
-136.6636614704999
 20
109.229589646282
 30
0.0
 11
-136.5157962834647
 21
109.2291449072145
 31
0.0
  0
LINE
  5
242
330
1F
100
AcDbEntity
  8
0
  6
Continuous
 62
     7
100
AcDbLine
 10
-136.5157962834647
 20
109.2291449072145
 30
0.0
 11
-136.5143566126687
 21
109.7078012858643
 31
0.0
  0
LINE
  5
243
330
1F
100
AcDbEntity
  8
0
  6
Continuous
 62
     7
100
AcDbLine
 10
-136.3802108759771
 20
109.7073978112463
 30
0.0
 11
-136.3816505467731
 21
109.2287414325965
 31
0.0
  0
LINE
  5
244
330
1F
100
AcDbEntity
  8
0
  6
Continuous
 62
     7
100
AcDbLine
 10
-136.5143566126687
 20
109.7078012858643
 30
0.0
 11
-136.3802108759771
 21
109.7073978112463
 31
0.0
  0
LINE
  5
245
330
1F
100
AcDbEntity
  8
0
  6
Continuous
 62
     7
100
AcDbLine
 10
-148.909945026655
 20
106.7177879224406
 30
0.0
 11
-149.909945026655
 21
106.7177879224406
 31
0.0
  0
LINE
  5
246
330
1F
100
AcDbEntity
  8
0
  6
Continuous
 62
     7
100
AcDbLine
 10
-138.909945026655
 20
111.2677879224396
 30
0.0
 11
-137.2099450266551
 21
109.5677879224396
 31
0.0
  0
LINE
  5
247
330
1F
100
AcDbEntity
  8
0
  6
Continuous
 62
     7
100
AcDbLine
 10
-147.859945026655
 20
111.2677879224408
 30
0.0
 11
-149.909945026655
 21
111.2677879224406
 31
0.0
  0
LINE
  5
248
330
1F
100
AcDbEntity
  8
0
  6
Continuous
 62
     7
100
AcDbLine
 10
-135.209945026655
 20
111.2677879224408
 30
0.0
 11
-137.259945026655
 21
111.2677879224408
 31
0.0
  0
LINE
  5
249
330
1F
100
AcDbEntity
  8
1
  6
DOT_CENTER
 62
     2
100
AcDbLine
 10
-137.3899450266446
 20
95.1427879224444
 30
0.0
 11
-143.3299450266638
 21
95.1427879224444
 31
0.0
  0
LINE
  5
24A
330
1F
100
AcDbEntity
  8
1
  6
DOT_CENTER
 62
     2
100
AcDbLine
 10
-140.3599450266542
 20
98.11278792245402
 30
0.0
 11
-140.3599450266542
 21
92.17278792243478
 31
0.0
  0
LINE
  5
24B
330
1F
100
AcDbEntity
  8
1
  6
DOT_CENTER
 62
     2
100
AcDbLine
 10
-139.094945026655
 20
108.6927879224355
 30
0.0
 11
-146.0249450266553
 21
108.6927879224355
 31
0.0
  0
LINE
  5
24C
330
1F
100
AcDbEntity
  8
1
  6
DOT_CENTER
 62
     2
100
AcDbLine
 10
-142.5599450266551
 20
112.1577879224356
 30
0.0
 11
-142.5599450266551
 21
105.2277879224353
 31
0.0
  0
LINE
  5
24D
330
1F
100
AcDbEntity
  8
1
  6
DOT_CENTER
 62
     2
100
AcDbLine
 10
-139.0949450266549
 20
87.8427879224439
 30
0.0
 11
-146.0249450266549
 21
87.8427879224439
 31
0.0
  0
LINE
  5
24E
330
1F
100
AcDbEntity
  8
1
  6
DOT_CENTER
 62
     2
100
AcDbLine
 10
-142.5599450266549
 20
91.30778792244391
 30
0.0
 11
-142.5599450266549
 21
84.3777879224439
 31
0.0
  0
LINE
  5
24F
330
1F
100
AcDbEntity
  8
1
  6
DOT_CENTER
 62
     2
100
AcDbLine
 10
-141.2949450266553
 20
101.3927879224356
 30
0.0
 11
-148.2249450266546
 21
101.3927879224356
 31
0.0
  0
LINE
  5
250
330
1F
100
AcDbEntity
  8
1
  6
DOT_CENTER
 62
     2
100
AcDbLine
 10
-144.759945026655
 20
104.8577879224353
 30
0.0
 11
-144.759945026655
 21
97.92778792243594
 31
0.0
  0
ARC
  5
251
102
{ACAD_REACTORS
330
328
102
}
330
1F
100
AcDbEntity
  8
1
  6
Continuous
 62
     7
100
AcDbCircle
 10
-19.72539976544869
 20
15.73121731203457
 30
0.0
 40
0.2649662124752854
100
AcDbArc
 50
30.00000000001921
 51
180.0
  0
ARC
  5
252
102
{ACAD_REACTORS
330
328
102
}
330
1F
100
AcDbEntity
  8
1
  6
Continuous
 62
     7
100
AcDbCircle
 10
-19.65703264459069
 20
10.84758507263291
 30
0.0
 40
0.3333333333333997
100
AcDbArc
 50
180.0
 51
0.0
  0
ARC
  5
253
102
{ACAD_REACTORS
330
328
102
}
330
1F
100
AcDbEntity
  8
1
  6
Continuous
 62
     7
100
AcDbCircle
 10
-16.99036597792389
 20
9.3082690706018
 30
0.0
 40
0.3333333333333997
100
AcDbArc
 50
180.0
 51
0.0
  0
ARC
  5
254
102
{ACAD_REACTORS
330
328
102
}
330
1F
100
AcDbEntity
  8
1
  6
Continuous
 62
     7
100
AcDbCircle
 10
-16.921998857066
 20
15.73121731203457
 30
0.0
 40
0.2649662124753114
100
AcDbArc
 50
0.0
 51
149.9999999999689
  0
ARC
  5
255
102
{ACAD_REACTORS
330
329
102
}
330
1F
100
AcDbEntity
  8
1
  6
Continuous
 62
     7
100
AcDbCircle
 10
-20.99036597792409
 20
14.92250016016737
 30
0.0
 40
0.3333333333333997
100
AcDbArc
 50
0.0
 51
180.0
  0
ARC
  5
256
102
{ACAD_REACTORS
330
329
102
}
330
1F
100
AcDbEntity
  8
1
  6
Continuous
 62
     7
100
AcDbCircle
 10
-18.65703264459069
 20
8.7313459936787
 30
0.0
 40
0.3333333333333673
100
AcDbArc
 50
240.0183606311504
 51
60.01836063115359
  0
ARC
  5
257
102
{ACAD_REACTORS
330
32A
102
}
330
1F
100
AcDbEntity
  8
1
  6
Continuous
 62
     7
100
AcDbCircle
 10
-22.32369931125729
 20
14.15326939093666
 30
0.0
 40
0.3333333333332007
100
AcDbArc
 50
0.0
 51
180.0
  0
ARC
  5
258
102
{ACAD_REACTORS
330
32A
102
}
330
1F
100
AcDbEntity
  8
1
  6
Continuous
 62
     7
100
AcDbCircle
 10
-22.32369931125729
 20
10.84673060906317
 30
0.0
 40
0.3333333333333997
100
AcDbArc
 50
180.0
 51
0.0
  0
ARC
  5
259
102
{ACAD_REACTORS
330
32B
102
}
330
1F
100
AcDbEntity
  8
1
  6
Continuous
 62
     7
100
AcDbCircle
 10
-14.32369931125729
 20
14.15326939093666
 30
0.0
 40
0.333333333333372
100
AcDbArc
 50
240.0183606311508
 51
60.01836063115039
  0
ARC
  5
25A
102
{ACAD_REACTORS
330
32B
102
}
330
1F
100
AcDbEntity
  8
1
  6
Continuous
 62
     7
100
AcDbCircle
 10
-14.32369931125729
 20
12.5
 30
0.0
 40
0.3333333333334298
100
AcDbArc
 50
270.0
 51
90.0
  0
ARC
  5
25B
102
{ACAD_REACTORS
330
32B
102
}
330
1F
100
AcDbEntity
  8
1
  6
Continuous
 62
     7
100
AcDbCircle
 10
-14.32369931125729
 20
10.84673060906317
 30
0.0
 40
0.3333333333333121
100
AcDbArc
 50
299.9816393688349
 51
119.9816393688398
  0
ARC
  5
25C
330
1F
100
AcDbEntity
  8
0
  6
Continuous
 62
     7
100
AcDbCircle
 10
-135.009945026655
 20
229.6298425444565
 30
0.0
 40
0.1999999999999951
100
AcDbArc
 50
177.6509774973936
 51
180.0000000000244
  0
ARC
  5
25D
330
1F
100
AcDbEntity
  8
0
  6
Continuous
 62
     7
100
AcDbCircle
 10
-135.009945026655
 20
232.3183629906245
 30
0.0
 40
0.1999999999999886
100
AcDbArc
 50
180.0
 51
182.349022502517
  0
ARC
  5
25E
330
1F
100
AcDbEntity
  8
0
  6
Continuous
 62
     7
100
AcDbCircle
 10
-135.009945026655
 20
249.6298425444564
 30
0.0
 40
0.1999999999999986
100
AcDbArc
 50
177.6509774973692
 51
179.9999999999756
  0
ARC
  5
25F
330
1F
100
AcDbEntity
  8
0
  6
Continuous
 62
     7
100
AcDbCircle
 10
-135.009945026655
 20
252.3183629906244
 30
0.0
 40
0.1999999999999886
100
AcDbArc
 50
179.9999999999674
 51
182.3490225024844
  0
ARC
  5
260
330
1F
100
AcDbEntity
  8
0
  6
Continuous
 62
     7
100
AcDbCircle
 10
-139.959945026655
 20
184.3965957437742
 30
0.0
 40
0.5
100
AcDbArc
 50
270.0
 51
0.0
  0
ARC
  5
261
330
1F
100
AcDbEntity
  8
0
  6
Continuous
 62
     7
100
AcDbCircle
 10
-145.159945026655
 20
184.3965957437742
 30
0.0
 40
0.5
100
AcDbArc
 50
180.0
 51
270.0
  0
ARC
  5
262
330
1F
100
AcDbEntity
  8
0
  6
Continuous
 62
     7
100
AcDbCircle
 10
-135.009945026655
 20
86.9235276993566
 30
0.0
 40
0.200000000000075
100
AcDbArc
 50
177.6509774974311
 51
180.0
  0
ARC
  5
263
330
1F
100
AcDbEntity
  8
0
  6
Continuous
 62
     7
100
AcDbCircle
 10
-135.009945026655
 20
89.6120481455246
 30
0.0
 40
0.2000000000001023
100
AcDbArc
 50
180.0
 51
182.349022502578
  0
ARC
  5
264
330
1F
100
AcDbEntity
  8
0
  6
Continuous
 62
     7
100
AcDbCircle
 10
-135.009945026655
 20
106.9235276993566
 30
0.0
 40
0.1999999999999904
100
AcDbArc
 50
177.6509774974261
 51
180.0
  0
ARC
  5
265
330
1F
100
AcDbEntity
  8
0
  6
Continuous
 62
     7
100
AcDbCircle
 10
-135.009945026655
 20
109.6120481455246
 30
0.0
 40
0.1999999999999886
100
AcDbArc
 50
180.0
 51
182.3490225025739
  0
LINE
  5
266
330
1F
100
AcDbEntity
  8
0
  6
Continuous
 62
     7
100
AcDbLine
 10
-137.209945026655
 20
95.1427857704207
 30
0.0
 11
-137.209945026655
 21
95.14279007251527
 31
0.0
  0
ARC
  5
267
330
1F
100
AcDbEntity
  8
0
  6
Continuous
 62
     7
100
AcDbCircle
 10
-140.3599450266542
 20
95.14278792146798
 30
0.0
 40
3.149999999999944
100
AcDbArc
 50
0.00003912569234
 51
359.9999608743076
  0
ARC
  5
268
330
1F
100
AcDbEntity
  8
0
  6
Continuous
 62
     7
100
AcDbCircle
 10
-142.5599450266551
 20
108.6927879224355
 30
0.0
 40
3.15000000000015
100
AcDbArc
 50
54.83136396046022
 51
125.1686360395384
  0
ARC
  5
269
330
1F
100
AcDbEntity
  8
0
  6
Continuous
 62
     7
100
AcDbCircle
 10
-142.5599450266549
 20
87.8427879224439
 30
0.0
 40
3.150000000000027
100
AcDbArc
 50
305.1686360397058
 51
234.831363960294
  0
ARC
  5
26A
330
1F
100
AcDbEntity
  8
0
  6
Continuous
 62
     7
100
AcDbCircle
 10
-142.5599450266549
 20
87.8427879224439
 30
0.0
 40
3.150000000000015
100
AcDbArc
 50
234.831363960294
 51
305.1686360397058
  0
ARC
  5
26B
330
1F
100
AcDbEntity
  8
0
  6
Continuous
 62
     7
100
AcDbCircle
 10
-142.5599450266551
 20
108.6927879224355
 30
0.0
 40
3.149999999999714
100
AcDbArc
 50
125.1686360395384
 51
54.83136396046022
  0
CIRCLE
  5
26C
330
1F
100
AcDbEntity
  8
0
  6
Continuous
 62
     7
100
AcDbCircle
 10
-142.5599450266547
 20
251.3991027675457
 30
0.0
 40
2.700000000000074
  0
CIRCLE
  5
26D
330
1F
100
AcDbEntity
  8
0
  6
Continuous
 62
     7
100
AcDbCircle
 10
-144.7599450266549
 20
237.8491027675455
 30
0.0
 40
2.700000000000007
  0
CIRCLE
  5
26E
330
1F
100
AcDbEntity
  8
0
  6
Continuous
 62
     7
100
AcDbCircle
 10
-142.5599450266551
 20
230.5491027675457
 30
0.0
 40
2.699999999999903
  0
CIRCLE
  5
26F
330
1F
100
AcDbEntity
  8
0
  6
Continuous
 62
     7
100
AcDbCircle
 10
-140.3599450266549
 20
244.0991027675457
 30
0.0
 40
2.699999999999885
  0
CIRCLE
  5
270
330
1F
100
AcDbEntity
  8
0
  6
Continuous
 62
     7
100
AcDbCircle
 10
-144.759945026655
 20
101.3927879224356
 30
0.0
 40
3.149999999999693
  0
CIRCLE
  5
271
330
1F
100
AcDbEntity
  8
0
  6
Continuous
 62
     7
100
AcDbCircle
 10
-140.3599450266542
 20
95.1427879224444
 30
0.0
 40
2.700000000008743
  0
CIRCLE
  5
272
330
1F
100
AcDbEntity
  8
0
  6
Continuous
 62
     7
100
AcDbCircle
 10
-144.759945026655
 20
101.3927879224356
 30
0.0
 40
2.700000000000003
  0
CIRCLE
  5
273
330
1F
100
AcDbEntity
  8
0
  6
Continuous
 62
     7
100
AcDbCircle
 10
-142.5599450266549
 20
87.8427879224439
 30
0.0
 40
2.7000000000086
  0
CIRCLE
  5
274
330
1F
100
AcDbEntity
  8
0
  6
Continuous
 62
     7
100
AcDbCircle
 10
-142.5599450266551
 20
108.6927879224355
 30
0.0
 40
2.699999999999903
  0
SPLINE
  5
275
330
1F
100
AcDbEntity
  8
0
  6
Continuous
 62
     7
100
AcDbSpline
210
0.0
220
0.0
230
1.0
 70
     8
 71
     3
 72
    11
 73
     7
 74
     5
 42
0.000000001
 43
0.0000000001
 44
0.00000001
 40
0.0
 40
0.0
 40
0.0
 40
0.0
 40
0.1444796166832184
 40
0.2742146587964243
 40
0.3907673342811821
 40
0.4991559899021455
 40
0.4991559899021455
 40
0.4991559899021455
 40
0.4991559899021455
 10
-31.90874902121888
 20
255.4589906150974
 30
0.0
 10
-31.91104532463347
 20
255.5073087274887
 30
0.0
 10
-31.91540360099399
 20
255.5990139435195
 30
0.0
 10
-31.95569254617107
 20
255.7240028031256
 30
0.0
 10
-32.0190432033792
 20
255.8273369141966
 30
0.0
 10
-32.08210834861909
 20
255.8693260980471
 30
0.0
 10
-32.11249648256489
 20
255.8895587067783
 30
0.0
 11
-31.90874902121888
 21
255.4589906150974
 31
0.0
 11
-31.92227660720686
 21
255.6028355446815
 31
0.0
 11
-31.96221220513515
 21
255.72627107376
 31
0.0
 11
-32.02664607593108
 21
255.8233936938798
 31
0.0
 11
-32.11249648256489
 21
255.8895587067783
 31
0.0
  0
SPLINE
  5
276
330
1F
100
AcDbEntity
  8
0
  6
Continuous
 62
     7
100
AcDbSpline
210
0.0
220
0.0
230
1.0
 70
     8
 71
     3
 72
    13
 73
     9
 74
     7
 42
0.000000001
 43
0.0000000001
 44
0.00000001
 40
0.0
 40
0.0
 40
0.0
 40
0.0
 40
0.1755198530686549
 40
0.3691629945300269
 40
0.5745285402104437
 40
0.7833010209346156
 40
0.986654166329727
 40
1.176583413060781
 40
1.176583413060781
 40
1.176583413060781
 40
1.176583413060781
 10
-32.47441290660049
 20
254.172288948616
 30
0.0
 10
-32.42408234431533
 20
254.2025624310003
 30
0.0
 10
-32.31822434986061
 20
254.2662352942939
 30
0.0
 10
-32.18503910078877
 20
254.4065630407036
 30
0.0
 10
-32.06885762145775
 20
254.5732621824419
 30
0.0
 10
-31.980632602358
 20
254.7600049758092
 30
0.0
 10
-31.92122027517344
 20
254.9533413361497
 30
0.0
 10
-31.91281041657565
 20
255.0845498464618
 30
0.0
 10
-31.90874902121888
 20
255.1479148338594
 30
0.0
 11
-32.47441290660049
 21
254.172288948616
 31
0.0
 11
-32.32800561260623
 21
254.2690986770365
 31
0.0
 11
-32.19157763202804
 21
254.4065216499121
 31
0.0
 11
-32.07442563104669
 21
254.575194164589
 31
0.0
 11
-31.98453220364151
 21
254.7636221906668
 31
0.0
 11
-31.92802330599021
 21
254.9589661090199
 31
0.0
 11
-31.90874902121888
 21
255.1479148338594
 31
0.0
  0
SPLINE
  5
277
330
1F
100
AcDbEntity
  8
0
  6
Continuous
 62
     7
100
AcDbSpline
210
0.0
220
0.0
230
1.0
 70
     8
 71
     3
 72
    13
 73
     9
 74
     7
 42
0.000000001
 43
0.0000000001
 44
0.00000001
 40
0.0
 40
0.0
 40
0.0
 40
0.0
 40
0.1096999077082061
 40
0.230726870033633
 40
0.3590803349985957
 40
0.4895631349171994
 40
0.6166588505962236
 40
0.735364629893856
 40
0.735364629893856
 40
0.735364629893856
 40
0.735364629893856
 10
-33.21691002864391
 20
253.8010403875943
 30
0.0
 10
-33.24836662994032
 20
253.7821194611834
 30
0.0
 10
-33.31452787291838
 20
253.7423239171959
 30
0.0
 10
-33.39776865442677
 20
253.6546190784593
 30
0.0
 10
-33.47038207811141
 20
253.5504321151294
 30
0.0
 10
-33.52552271567538
 20
253.4337178700986
 30
0.0
 10
-33.56265541770374
 20
253.3128826448044
 30
0.0
 10
-33.56791158490749
 20
253.230877326471
 30
0.0
 10
-33.57044995700741
 20
253.1912742093172
 30
0.0
 11
-33.21691002864391
 21
253.8010403875943
 31
0.0
 11
-33.30841458739032
 21
253.7405343073315
 31
0.0
 11
-33.39368207525169
 21
253.6546449492843
 31
0.0
 11
-33.46690207586504
 21
253.5492246276111
 31
0.0
 11
-33.52308546799327
 21
253.4314571113126
 31
0.0
 11
-33.55840352902533
 21
253.3093671623419
 31
0.0
 11
-33.57044995700741
 21
253.1912742093172
 31
0.0
  0
SPLINE
  5
278
330
1F
100
AcDbEntity
  8
0
  6
Continuous
 62
     7
100
AcDbSpline
210
0.0
220
0.0
230
1.0
 70
     8
 71
     3
 72
    11
 73
     7
 74
     5
 42
0.000000001
 43
0.0000000001
 44
0.00000001
 40
0.0
 40
0.0
 40
0.0
 40
0.0
 40
0.0921506482674438
 40
0.1746863462767902
 40
0.2487207871678296
 40
0.3177212965693049
 40
0.3177212965693049
 40
0.3177212965693049
 40
0.3177212965693049
 10
-24.91485374671197
 20
261.8491993333867
 30
0.0
 10
-24.91634862041894
 20
261.8800219486262
 30
0.0
 10
-24.91918240758163
 20
261.9384511618973
 30
0.0
 10
-24.94542028219504
 20
262.017853881425
 30
0.0
 10
-24.98680475289392
 20
262.0830309717056
 30
0.0
 10
-25.02768439126253
 20
262.1085827237462
 30
0.0
 10
-25.04740486149282
 20
262.1209089635568
 30
0.0
 11
-24.91485374671197
 21
261.8491993333867
 31
0.0
 11
-24.92367786742235
 21
261.9409265195595
 31
0.0
 11
-24.94970963459761
 21
262.019249498178
 31
0.0
 11
-24.9916498162881
 21
262.0802586792233
 31
0.0
 11
-25.04740486149282
 21
262.1209089635568
 31
0.0
  0
SPLINE
  5
279
330
1F
100
AcDbEntity
  8
0
  6
Continuous
 62
     7
100
AcDbSpline
210
0.0
220
0.0
230
1.0
 70
     8
 71
     3
 72
     9
 73
     5
 74
     3
 42
0.000000001
 43
0.0000000001
 44
0.00000001
 40
0.0
 40
0.0
 40
0.0
 40
0.0
 40
0.1055395842874363
 40
0.2275120183316596
 40
0.2275120183316596
 40
0.2275120183316596
 40
0.2275120183316596
 10
-25.04740486149282
 20
262.1209089635568
 30
0.0
 10
-25.08222997360183
 20
262.1308397643542
 30
0.0
 10
-25.15730258033751
 20
262.1522476041117
 30
0.0
 10
-25.22962213379753
 20
262.1217667913652
 30
0.0
 10
-25.26839367507549
 20
262.1054255833003
 30
0.0
 11
-25.04740486149282
 21
262.1209089635568
 31
0.0
 11
-25.15128777025542
 21
262.1395354393553
 31
0.0
 11
-25.26839367507549
 21
262.1054255833003
 31
0.0
  0
SPLINE
  5
27A
330
1F
100
AcDbEntity
  8
0
  6
Continuous
 62
     7
100
AcDbSpline
210
0.0
220
0.0
230
1.0
 70
     8
 71
     3
 72
    11
 73
     7
 74
     5
 42
0.000000001
 43
0.0000000001
 44
0.00000001
 40
0.0
 40
0.0
 40
0.0
 40
0.0
 40
0.0831983209808187
 40
0.1703128718273699
 40
0.2641813030117101
 40
0.3664113164243558
 40
0.3664113164243558
 40
0.3664113164243558
 40
0.3664113164243558
 10
-26.15234086449506
 20
261.8154696310463
 30
0.0
 10
-26.12628176417967
 20
261.8054682929258
 30
0.0
 10
-26.07293693074823
 20
261.7849948576421
 30
0.0
 10
-25.98350389278712
 20
261.7827549799151
 30
0.0
 10
-25.88991208410405
 20
261.7996308406059
 30
0.0
 10
-25.82999481984551
 20
261.8263262074843
 30
0.0
 10
-25.79875876276279
 20
261.8402430394566
 30
0.0
 11
-26.15234086449506
 21
261.8154696310463
 31
0.0
 11
-26.07313480088724
 21
261.7900067082669
 31
0.0
 11
-25.98612844035392
 21
261.7856663529585
 31
0.0
 11
-25.89379490346059
 21
261.8025719950884
 31
0.0
 11
-25.79875876276279
 21
261.8402430394566
 31
0.0
  0
SPLINE
  5
27B
330
1F
100
AcDbEntity
  8
0
  6
Continuous
 62
     7
100
AcDbSpline
210
0.0
220
0.0
230
1.0
 70
     8
 71
     3
 72
    11
 73
     7
 74
     5
 42
0.000000001
 43
0.0000000001
 44
0.00000001
 40
0.0
 40
0.0
 40
0.0
 40
0.0
 40
0.1474410366204411
 40
0.2794981550203101
 40
0.3979532627719228
 40
0.5083540794860382
 40
0.5083540794860382
 40
0.5083540794860382
 40
0.5083540794860382
 10
-26.3644226481444
 20
262.2502050393185
 30
0.0
 10
-26.3620308502231
 20
262.2008888551385
 30
0.0
 10
-26.35749679919885
 20
262.1074021125479
 30
0.0
 10
-26.31551619600878
 20
261.9803577614636
 30
0.0
 10
-26.2493010451567
 20
261.8760744119925
 30
0.0
 10
-26.18389361734131
 20
261.8351916150418
 30
0.0
 10
-26.15234086449506
 20
261.8154696310463
 30
0.0
 11
-26.3644226481444
 21
262.2502050393185
 31
0.0
 11
-26.35030405500781
 21
262.1034415414419
 31
0.0
 11
-26.30865322752739
 21
261.9781247756524
 31
0.0
 11
-26.24154893682262
 21
261.8805100859798
 31
0.0
 11
-26.15234086449506
 21
261.8154696310463
 31
0.0
  0
SPLINE
  5
27C
330
1F
100
AcDbEntity
  8
0
  6
Continuous
 62
     7
100
AcDbSpline
210
0.0
220
0.0
230
1.0
 70
     8
 71
     3
 72
    13
 73
     9
 74
     7
 42
0.000000001
 43
0.0000000001
 44
0.00000001
 40
0.0
 40
0.0
 40
0.0
 40
0.0
 40
0.1096999077082493
 40
0.2307268700336762
 40
0.3590803349986156
 40
0.4895631349172992
 40
0.6166588505963508
 40
0.7353646298940107
 40
0.7353646298940107
 40
0.7353646298940107
 40
0.7353646298940107
 10
-33.21691002864388
 20
258.1311674065162
 30
0.0
 10
-33.24836662994029
 20
258.1122464801053
 30
0.0
 10
-33.31452787291833
 20
258.0724509361177
 30
0.0
 10
-33.39776865442676
 20
257.9847460973813
 30
0.0
 10
-33.47038207811144
 20
257.8805591340513
 30
0.0
 10
-33.52552271567536
 20
257.7638448890204
 30
0.0
 10
-33.56265541770374
 20
257.6430096637262
 30
0.0
 10
-33.56791158490749
 20
257.5610043453928
 30
0.0
 10
-33.5704499570074
 20
257.521401228239
 30
0.0
 11
-33.21691002864388
 21
258.1311674065162
 31
0.0
 11
-33.3084145873903
 21
258.0706613262533
 31
0.0
 11
-33.39368207525168
 21
257.9847719682061
 31
0.0
 11
-33.46690207586502
 21
257.879351646533
 31
0.0
 11
-33.52308546799326
 21
257.7615841302344
 31
0.0
 11
-33.55840352902532
 21
257.6394941812637
 31
0.0
 11
-33.5704499570074
 21
257.521401228239
 31
0.0
  0
SPLINE
  5
27D
330
1F
100
AcDbEntity
  8
0
  6
Continuous
 62
     7
100
AcDbSpline
210
0.0
220
0.0
230
1.0
 70
     8
 71
     3
 72
    13
 73
     9
 74
     7
 42
0.000000001
 43
0.0000000001
 44
0.00000001
 40
0.0
 40
0.0
 40
0.0
 40
0.0
 40
0.1755198530686803
 40
0.3691629945300371
 40
0.5745285402104773
 40
0.7833010209346265
 40
0.986654166329736
 40
1.176583413060761
 40
1.176583413060761
 40
1.176583413060761
 40
1.176583413060761
 10
-32.68654494095651
 20
258.3963499503598
 30
0.0
 10
-32.63621437867136
 20
258.4266234327441
 30
0.0
 10
-32.53035638421667
 20
258.490296296038
 30
0.0
 10
-32.39717113514474
 20
258.6306240424473
 30
0.0
 10
-32.2809896558138
 20
258.7973231841857
 30
0.0
 10
-32.192764636714
 20
258.9840659775531
 30
0.0
 10
-32.13335230952945
 20
259.1774023378936
 30
0.0
 10
-32.12494245093166
 20
259.3086108482056
 30
0.0
 10
-32.1208810555749
 20
259.3719758356032
 30
0.0
 11
-32.68654494095651
 21
258.3963499503598
 31
0.0
 11
-32.54013764696226
 21
258.4931596787804
 31
0.0
 11
-32.40370966638406
 21
258.6305826516559
 31
0.0
 11
-32.2865576654027
 21
258.7992551663329
 31
0.0
 11
-32.19666423799752
 21
258.9876831924107
 31
0.0
 11
-32.14015534034623
 21
259.1830271107638
 31
0.0
 11
-32.1208810555749
 21
259.3719758356032
 31
0.0
  0
SPLINE
  5
27E
330
1F
100
AcDbEntity
  8
0
  6
Continuous
 62
     7
100
AcDbSpline
210
0.0
220
0.0
230
1.0
 70
     8
 71
     3
 72
    13
 73
     9
 74
     7
 42
0.000000001
 43
0.0000000001
 44
0.00000001
 40
0.0
 40
0.0
 40
0.0
 40
0.0
 40
0.3949196709368482
 40
0.8306167428512856
 40
1.292689224250148
 40
1.762427307659299
 40
2.219971885441326
 40
2.647312690283588
 40
2.647312690283588
 40
2.647312690283588
 40
2.647312690283588
 10
-30.84813731346627
 20
262.3466426773505
 30
0.0
 10
-30.96138107904728
 20
262.2785273417215
 30
0.0
 10
-31.19956157842405
 20
262.1352634140738
 30
0.0
 10
-31.49922838604113
 20
261.8195259754216
 30
0.0
 10
-31.76063671752624
 20
261.4444529056548
 30
0.0
 10
-31.95914300841216
 20
261.0242816178318
 30
0.0
 10
-32.09282075278401
 20
260.5892748073374
 30
0.0
 10
-32.11174291602865
 20
260.2940556570966
 30
0.0
 10
-32.1208810555749
 20
260.1514844355529
 30
0.0
 11
-30.84813731346627
 21
262.3466426773505
 31
0.0
 11
-31.17755372495334
 21
262.1288207884043
 31
0.0
 11
-31.48451668125428
 21
261.8196190994344
 31
0.0
 11
-31.74810868346232
 21
261.4401059414111
 31
0.0
 11
-31.95036889512399
 21
261.0161428827361
 31
0.0
 11
-32.0775139148394
 21
260.5766190664416
 31
0.0
 11
-32.1208810555749
 21
260.1514844355529
 31
0.0
  0
SPLINE
  5
27F
330
1F
100
AcDbEntity
  8
0
  6
Continuous
 62
     7
100
AcDbSpline
210
0.0
220
0.0
230
1.0
 70
     8
 71
     3
 72
    11
 73
     7
 74
     5
 42
0.000000001
 43
0.0000000001
 44
0.00000001
 40
0.0
 40
0.0
 40
0.0
 40
0.0
 40
0.1871962247210347
 40
0.3832039676287943
 40
0.5944079404438483
 40
0.8244254705011106
 40
0.8244254705011106
 40
0.8244254705011106
 40
0.8244254705011106
 10
-26.84160666135536
 20
264.0078683078804
 30
0.0
 10
-26.90023963785248
 20
264.0303713189541
 30
0.0
 10
-27.02026550951091
 20
264.0764365667509
 30
0.0
 10
-27.22148984967586
 20
264.0814762824489
 30
0.0
 10
-27.43207142285198
 20
264.0435056036885
 30
0.0
 10
-27.56688526185389
 20
263.9834410108784
 30
0.0
 10
-27.63716639025296
 20
263.9521281389571
 30
0.0
 11
-26.84160666135536
 21
264.0078683078804
 31
0.0
 11
-27.01982030447293
 21
264.065159884134
 31
0.0
 11
-27.21558461567292
 21
264.0749256835778
 31
0.0
 11
-27.42333507368291
 21
264.0368879887856
 31
0.0
 11
-27.63716639025296
 21
263.9521281389571
 31
0.0
  0
SPLINE
  5
280
330
1F
100
AcDbEntity
  8
0
  6
Continuous
 62
     7
100
AcDbSpline
210
0.0
220
0.0
230
1.0
 70
     8
 71
     3
 72
    11
 73
     7
 74
     5
 42
0.000000001
 43
0.0000000001
 44
0.00000001
 40
0.0
 40
0.0
 40
0.0
 40
0.0
 40
0.3317423311303783
 40
0.6288708508320208
 40
0.8953948481189229
 40
1.143796689208574
 40
1.143796689208574
 40
1.143796689208574
 40
1.143796689208574
 10
-26.36442264814431
 20
263.0297136392679
 30
0.0
 10
-26.3698041934467
 20
263.1406750532494
 30
0.0
 10
-26.38000579067622
 20
263.3510202269053
 30
0.0
 10
-26.47446215578848
 20
263.636870016511
 30
0.0
 10
-26.62344624048469
 20
263.8715075632849
 30
0.0
 10
-26.77061296645587
 20
263.9634938432681
 30
0.0
 10
-26.84160666135536
 20
264.0078683078804
 30
0.0
 11
-26.36442264814431
 21
263.0297136392679
 31
0.0
 11
-26.39618948270164
 21
263.3599315094903
 31
0.0
 11
-26.48990384453259
 21
263.6418942325167
 31
0.0
 11
-26.64088849861833
 21
263.8615272842799
 31
0.0
 11
-26.84160666135536
 21
264.0078683078804
 31
0.0
  0
SPLINE
  5
281
330
1F
100
AcDbEntity
  8
0
  6
Continuous
 62
     7
100
AcDbSpline
210
0.0
220
0.0
230
1.0
 70
     8
 71
     3
 72
    11
 73
     7
 74
     5
 42
0.000000001
 43
0.0000000001
 44
0.00000001
 40
0.0
 40
0.0
 40
0.0
 40
0.0
 40
0.0853368779701262
 40
0.1745067046495054
 40
0.2706769297451699
 40
0.3756530338936758
 40
0.3756530338936758
 40
0.3756530338936758
 40
0.3756530338936758
 10
-32.11249648256489
 20
255.8895587067783
 30
0.0
 10
-32.13893077294671
 20
255.9005883924575
 30
0.0
 10
-32.19298666784995
 20
255.9231431536905
 30
0.0
 10
-32.28467194409319
 20
255.9269955174808
 30
0.0
 10
-32.38080863511047
 20
255.9105232624491
 30
0.0
 10
-32.44231394829947
 20
255.8832081074372
 30
0.0
 10
-32.47441290660049
 20
255.8689526149591
 30
0.0
 11
-32.11249648256489
 21
255.8895587067783
 31
0.0
 11
-32.19300797170435
 21
255.9178479841698
 31
0.0
 11
-32.28197549608285
 21
255.9238511592424
 31
0.0
 11
-32.37672606582463
 21
255.9073878014733
 31
0.0
 11
-32.47441290660049
 21
255.8689526149591
 31
0.0
  0
SPLINE
  5
282
330
1F
100
AcDbEntity
  8
0
  6
Continuous
 62
     7
100
AcDbSpline
210
0.0
220
0.0
230
1.0
 70
     8
 71
     3
 72
    11
 73
     7
 74
     5
 42
0.000000001
 43
0.0000000001
 44
0.00000001
 40
0.0
 40
0.0
 40
0.0
 40
0.0
 40
0.0497098168489642
 40
0.104564286805226
 40
0.1678336679616974
 40
0.2406466797160483
 40
0.2406466797160483
 40
0.2406466797160483
 40
0.2406466797160483
 10
-49.03661647191338
 20
275.8099721016799
 30
0.0
 10
-49.03863884668236
 20
275.7933227655977
 30
0.0
 10
-49.04289291367819
 20
275.7583009950075
 30
0.0
 10
-49.07486375244909
 20
275.7104362471978
 30
0.0
 10
-49.12184868315859
 20
275.6669647100994
 30
0.0
 10
-49.16172606225064
 20
275.6449661003368
 30
0.0
 10
-49.1830630813201
 20
275.6331954063832
 30
0.0
 11
-49.03661647191338
 21
275.8099721016799
 31
0.0
 11
-49.04622385497139
 21
275.7611995234892
 31
0.0
 11
-49.07467670565772
 21
275.7143012435886
 31
0.0
 11
-49.12088168548066
 21
275.6710795500127
 31
0.0
 11
-49.1830630813201
 21
275.6331954063832
 31
0.0
  0
SPLINE
  5
283
330
1F
100
AcDbEntity
  8
0
  6
Continuous
 62
     7
100
AcDbSpline
210
0.0
220
0.0
230
1.0
 70
     8
 71
     3
 72
    13
 73
     9
 74
     7
 42
0.000000001
 43
0.0000000001
 44
0.00000001
 40
0.0
 40
0.0
 40
0.0
 40
0.0
 40
0.1109132967657328
 40
0.2340628223879855
 40
0.3637524072084849
 40
0.4934419920289701
 40
0.6165915176512228
 40
0.7275048144169423
 40
0.7275048144169423
 40
0.7275048144169423
 40
0.7275048144169423
 10
-53.56712512467671
 20
275.5267685828671
 30
0.0
 10
-53.53299141898498
 20
275.5123315800068
 30
0.0
 10
-53.46095828746885
 20
275.4818648626152
 30
0.0
 10
-53.34103764621412
 20
275.4593041823476
 30
0.0
 10
-53.21357173408341
 20
275.4505914607342
 30
0.0
 10
-53.08610582195267
 20
275.4593041823476
 30
0.0
 10
-52.96618518069796
 20
275.4818648626153
 30
0.0
 10
-52.89415204918184
 20
275.5123315800068
 30
0.0
 10
-52.86001834349011
 20
275.5267685828671
 30
0.0
 11
-53.56712512467671
 21
275.5267685828671
 31
0.0
 11
-53.46357166743198
 21
275.4870389849394
 31
0.0
 11
-53.34298125663465
 21
275.4620638215914
 31
0.0
 11
-53.21357173408339
 21
275.4535453448151
 31
0.0
 11
-53.08416221153215
 21
275.4620638215914
 31
0.0
 11
-52.96357180073483
 21
275.4870389849394
 31
0.0
 11
-52.86001834349011
 21
275.5267685828671
 31
0.0
  0
SPLINE
  5
284
330
1F
100
AcDbEntity
  8
0
  6
Continuous
 62
     7
100
AcDbSpline
210
0.0
220
0.0
230
1.0
 70
     8
 71
     3
 72
    11
 73
     7
 74
     5
 42
0.000000001
 43
0.0000000001
 44
0.00000001
 40
0.0
 40
0.0
 40
0.0
 40
0.0
 40
0.0497098168490227
 40
0.1045642868052396
 40
0.1678336679617214
 40
0.2406466797160426
 40
0.2406466797160426
 40
0.2406466797160426
 40
0.2406466797160426
 10
-49.03661647191335
 20
277.5420229092487
 30
0.0
 10
-49.03863884668233
 20
277.5253735731666
 30
0.0
 10
-49.04289291367816
 20
277.4903518025764
 30
0.0
 10
-49.0748637524491
 20
277.4424870547666
 30
0.0
 10
-49.12184868315858
 20
277.3990155176681
 30
0.0
 10
-49.16172606225062
 20
277.3770169079057
 30
0.0
 10
-49.1830630813201
 20
277.3652462139521
 30
0.0
 11
-49.03661647191335
 21
277.5420229092487
 31
0.0
 11
-49.04622385497137
 21
277.493250331058
 31
0.0
 11
-49.07467670565771
 21
277.4463520511574
 31
0.0
 11
-49.12088168548066
 21
277.4031303575816
 31
0.0
 11
-49.1830630813201
 21
277.3652462139521
 31
0.0
  0
SPLINE
  5
285
330
1F
100
AcDbEntity
  8
0
  6
Continuous
 62
     7
100
AcDbSpline
210
0.0
220
0.0
230
1.0
 70
     8
 71
     3
 72
    11
 73
     7
 74
     5
 42
0.000000001
 43
0.0000000001
 44
0.00000001
 40
0.0
 40
0.0
 40
0.0
 40
0.0
 40
0.0728130117543213
 40
0.1360823929108419
 40
0.1909368628670588
 40
0.2406466797160815
 40
0.2406466797160815
 40
0.2406466797160815
 40
0.2406466797160815
 10
-49.1830630813201
 20
277.7187996045454
 30
0.0
 10
-49.16172606225064
 20
277.7070289105918
 30
0.0
 10
-49.12184868315855
 20
277.6850303008293
 30
0.0
 10
-49.07486375244912
 20
277.6415587637308
 30
0.0
 10
-49.04289291367815
 20
277.593694015921
 30
0.0
 10
-49.03863884668233
 20
277.558672245331
 30
0.0
 10
-49.03661647191335
 20
277.5420229092487
 30
0.0
 11
-49.1830630813201
 21
277.7187996045454
 31
0.0
 11
-49.12088168548066
 21
277.6809154609159
 31
0.0
 11
-49.07467670565771
 21
277.63769376734
 31
0.0
 11
-49.04622385497137
 21
277.5907954874394
 31
0.0
 11
-49.03661647191335
 21
277.5420229092487
 31
0.0
  0
SPLINE
  5
286
330
1F
100
AcDbEntity
  8
0
  6
Continuous
 62
     7
100
AcDbSpline
210
0.0
220
0.0
230
1.0
 70
     8
 71
     3
 72
    13
 73
     9
 74
     7
 42
0.000000001
 43
0.0000000001
 44
0.00000001
 40
0.0
 40
0.0
 40
0.0
 40
0.0
 40
0.1109132967659568
 40
0.2340628223882325
 40
0.3637524072087319
 40
0.4934419920292171
 40
0.6165915176514442
 40
0.7275048144173413
 40
0.7275048144173413
 40
0.7275048144173413
 40
0.7275048144173413
 10
-53.56712512467671
 20
273.794717775299
 30
0.0
 10
-53.53299141898499
 20
273.7802807724385
 30
0.0
 10
-53.46095828746898
 20
273.7498140550464
 30
0.0
 10
-53.3410376462141
 20
273.7272533747787
 30
0.0
 10
-53.21357173408342
 20
273.7185406531655
 30
0.0
 10
-53.08610582195268
 20
273.7272533747787
 30
0.0
 10
-52.96618518069789
 20
273.7498140550464
 30
0.0
 10
-52.89415204918191
 20
273.7802807724385
 30
0.0
 10
-52.86001834349021
 20
273.794717775299
 30
0.0
 11
-53.56712512467671
 21
273.794717775299
 31
0.0
 11
-53.46357166743198
 21
273.7549881773707
 31
0.0
 11
-53.34298125663465
 21
273.7300130140226
 31
0.0
 11
-53.21357173408339
 21
273.7214945372463
 31
0.0
 11
-53.08416221153215
 21
273.7300130140226
 31
0.0
 11
-52.96357180073488
 21
273.7549881773707
 31
0.0
 11
-52.86001834349021
 21
273.794717775299
 31
0.0
  0
SPLINE
  5
287
330
1F
100
AcDbEntity
  8
0
  6
Continuous
 62
     7
100
AcDbSpline
210
0.0
220
0.0
230
1.0
 70
     8
 71
     3
 72
    11
 73
     7
 74
     5
 42
0.000000001
 43
0.0000000001
 44
0.00000001
 40
0.0
 40
0.0
 40
0.0
 40
0.0
 40
0.0921506482674717
 40
0.174686346276817
 40
0.248720787167833
 40
0.317721296569314
 40
0.317721296569314
 40
0.317721296569314
 40
0.317721296569314
 10
-24.9148537467123
 20
249.7248436804047
 30
0.0
 10
-24.91634862041927
 20
249.7556662956441
 30
0.0
 10
-24.91918240758196
 20
249.8140955089154
 30
0.0
 10
-24.94542028219536
 20
249.893498228443
 30
0.0
 10
-24.98680475289425
 20
249.9586753187236
 30
0.0
 10
-25.02768439126286
 20
249.9842270707642
 30
0.0
 10
-25.04740486149315
 20
249.9965533105748
 30
0.0
 11
-24.9148537467123
 21
249.7248436804047
 31
0.0
 11
-24.92367786742267
 21
249.8165708665775
 31
0.0
 11
-24.94970963459794
 21
249.894893845196
 31
0.0
 11
-24.99164981628842
 21
249.9559030262413
 31
0.0
 11
-25.04740486149315
 21
249.9965533105748
 31
0.0
  0
SPLINE
  5
288
330
1F
100
AcDbEntity
  8
0
  6
Continuous
 62
     7
100
AcDbSpline
210
0.0
220
0.0
230
1.0
 70
     8
 71
     3
 72
    13
 73
     9
 74
     7
 42
0.000000001
 43
0.0000000001
 44
0.00000001
 40
0.0
 40
0.0
 40
0.0
 40
0.0
 40
0.1096999077082032
 40
0.2307268700336275
 40
0.3590803349985903
 40
0.4895631349171969
 40
0.6166588505962202
 40
0.7353646298938807
 40
0.7353646298938807
 40
0.7353646298938807
 40
0.7353646298938807
 10
-25.26839367507573
 20
251.6777335966616
 30
0.0
 10
-25.23693707377933
 20
251.6966545230725
 30
0.0
 10
-25.17077583080126
 20
251.73645006706
 30
0.0
 10
-25.08753504929287
 20
251.8241549057966
 30
0.0
 10
-25.01492162560824
 20
251.9283418691266
 30
0.0
 10
-24.95978098804424
 20
252.0450561141572
 30
0.0
 10
-24.92264828601591
 20
252.1658913394516
 30
0.0
 10
-24.91739211881215
 20
252.2478966577849
 30
0.0
 10
-24.91485374671223
 20
252.2874997749387
 30
0.0
 11
-25.26839367507573
 21
251.6777335966616
 31
0.0
 11
-25.17688911632932
 21
251.7382396769244
 31
0.0
 11
-25.09162162846795
 21
251.8241290349716
 31
0.0
 11
-25.01840162785461
 21
251.9295493566448
 31
0.0
 11
-24.96221823572637
 21
252.0473168729433
 31
0.0
 11
-24.92690017469431
 21
252.169406821914
 31
0.0
 11
-24.91485374671223
 21
252.2874997749387
 31
0.0
  0
SPLINE
  5
289
330
1F
100
AcDbEntity
  8
0
  6
Continuous
 62
     7
100
AcDbSpline
210
0.0
220
0.0
230
1.0
 70
     8
 71
     3
 72
    11
 73
     7
 74
     5
 42
0.000000001
 43
0.0000000001
 44
0.00000001
 40
0.0
 40
0.0
 40
0.0
 40
0.0
 40
0.0902997607998032
 40
0.1713841611541679
 40
0.2442295819131796
 40
0.311972490666496
 40
0.311972490666496
 40
0.311972490666496
 40
0.311972490666496
 10
-33.5704499570074
 20
255.7539303038511
 30
0.0
 10
-33.56901476736736
 20
255.7237314834819
 30
0.0
 10
-33.56629083935491
 20
255.6664157242918
 30
0.0
 10
-33.54111025102095
 20
255.5882976869349
 30
0.0
 10
-33.50151608876626
 20
255.5237138705917
 30
0.0
 10
-33.46210037709915
 20
255.497470626819
 30
0.0
 10
-33.44310779366614
 20
255.4848252465505
 30
0.0
 11
-33.5704499570074
 21
255.7539303038511
 31
0.0
 11
-33.56199521576491
 21
255.664027222861
 31
0.0
 11
-33.53703546705973
 21
255.5868800171869
 31
0.0
 11
-33.49676429781227
 21
255.5261783796121
 31
0.0
 11
-33.44310779366614
 21
255.4848252465505
 31
0.0
  0
SPLINE
  5
28A
330
1F
100
AcDbEntity
  8
0
  6
Continuous
 62
     7
100
AcDbSpline
210
0.0
220
0.0
230
1.0
 70
     8
 71
     3
 72
     9
 73
     5
 74
     3
 42
0.000000001
 43
0.0000000001
 44
0.00000001
 40
0.0
 40
0.0
 40
0.0
 40
0.0
 40
0.1080710256157662
 40
0.2331425352774654
 40
0.2331425352774654
 40
0.2331425352774654
 40
0.2331425352774654
 10
-33.44310779366614
 20
255.4848252465505
 30
0.0
 10
-33.4076451243667
 20
255.4737349926047
 30
0.0
 10
-33.3311412068248
 20
255.4498099132984
 30
0.0
 10
-33.25679418664808
 20
255.4809816642978
 30
0.0
 10
-33.2169100286439
 20
255.4977040539374
 30
0.0
 11
-33.44310779366614
 21
255.4848252465505
 31
0.0
 11
-33.33718323587638
 21
255.4633931410573
 31
0.0
 11
-33.2169100286439
 21
255.4977040539374
 31
0.0
  0
SPLINE
  5
28B
330
1F
100
AcDbEntity
  8
0
  6
Continuous
 62
     7
100
AcDbSpline
210
0.0
220
0.0
230
1.0
 70
     8
 71
     3
 72
     9
 73
     5
 74
     3
 42
0.000000001
 43
0.0000000001
 44
0.00000001
 40
0.0
 40
0.0
 40
0.0
 40
0.0
 40
0.1055395842874308
 40
0.2275120183316439
 40
0.2275120183316439
 40
0.2275120183316439
 40
0.2275120183316439
 10
-25.04740486149315
 20
249.9965533105748
 30
0.0
 10
-25.08222997360215
 20
250.0064841113722
 30
0.0
 10
-25.15730258033783
 20
250.0278919511297
 30
0.0
 10
-25.22962213379783
 20
249.9974111383831
 30
0.0
 10
-25.2683936750758
 20
249.9810699303183
 30
0.0
 11
-25.04740486149315
 21
249.9965533105748
 31
0.0
 11
-25.15128777025574
 21
250.0151797863733
 31
0.0
 11
-25.2683936750758
 21
249.9810699303183
 31
0.0
  0
SPLINE
  5
28C
330
1F
100
AcDbEntity
  8
0
  6
Continuous
 62
     7
100
AcDbSpline
210
0.0
220
0.0
230
1.0
 70
     8
 71
     3
 72
    11
 73
     7
 74
     5
 42
0.000000001
 43
0.0000000001
 44
0.00000001
 40
0.0
 40
0.0
 40
0.0
 40
0.0
 40
0.0831983209807699
 40
0.1703128718273211
 40
0.2641813030116459
 40
0.3664113164243021
 40
0.3664113164243021
 40
0.3664113164243021
 40
0.3664113164243021
 10
-26.36447289885088
 20
249.5850479608865
 30
0.0
 10
-26.33841379853549
 20
249.575046622766
 30
0.0
 10
-26.28506896510401
 20
249.5545731874825
 30
0.0
 10
-26.19563592714297
 20
249.5523333097555
 30
0.0
 10
-26.10204411845984
 20
249.5692091704462
 30
0.0
 10
-26.04212685420133
 20
249.5959045373245
 30
0.0
 10
-26.01089079711861
 20
249.6098213692969
 30
0.0
 11
-26.36447289885088
 21
249.5850479608865
 31
0.0
 11
-26.28526683524306
 21
249.5595850381073
 31
0.0
 11
-26.19826047470973
 21
249.5552446827988
 31
0.0
 11
-26.10592693781641
 21
249.5721503249287
 31
0.0
 11
-26.01089079711861
 21
249.6098213692969
 31
0.0
  0
SPLINE
  5
28D
330
1F
100
AcDbEntity
  8
0
  6
Continuous
 62
     7
100
AcDbSpline
210
0.0
220
0.0
230
1.0
 70
     8
 71
     3
 72
    13
 73
     9
 74
     7
 42
0.000000001
 43
0.0000000001
 44
0.00000001
 40
0.0
 40
0.0
 40
0.0
 40
0.0
 40
0.1755198530687205
 40
0.3691629945300345
 40
0.5745285402104959
 40
0.7833010209346406
 40
0.9866541663296965
 40
1.17658341306075
 40
1.17658341306075
 40
1.17658341306075
 40
1.17658341306075
 10
-26.01089079711861
 20
251.3064850356402
 30
0.0
 10
-26.06122135940376
 20
251.2762115532558
 30
0.0
 10
-26.16707935385843
 20
251.2125386899621
 30
0.0
 10
-26.3002646029304
 20
251.0722109435527
 30
0.0
 10
-26.41644608226133
 20
250.9055118018144
 30
0.0
 10
-26.5046711013611
 20
250.7187690084469
 30
0.0
 10
-26.56408342854566
 20
250.5254326481064
 30
0.0
 10
-26.57249328714347
 20
250.3942241377945
 30
0.0
 10
-26.57655468250022
 20
250.3308591503968
 30
0.0
 11
-26.01089079711861
 21
251.3064850356402
 31
0.0
 11
-26.15729809111287
 21
251.2096753072196
 31
0.0
 11
-26.29372607169107
 21
251.0722523343441
 31
0.0
 11
-26.41087807267242
 21
250.9035798196671
 31
0.0
 11
-26.50077150007759
 21
250.7151517935893
 31
0.0
 11
-26.55728039772889
 21
250.5198078752363
 31
0.0
 11
-26.57655468250022
 21
250.3308591503968
 31
0.0
  0
SPLINE
  5
28E
330
1F
100
AcDbEntity
  8
0
  6
Continuous
 62
     7
100
AcDbSpline
210
0.0
220
0.0
230
1.0
 70
     8
 71
     3
 72
    11
 73
     7
 74
     5
 42
0.000000001
 43
0.0000000001
 44
0.00000001
 40
0.0
 40
0.0
 40
0.0
 40
0.0
 40
0.1474410366204983
 40
0.2794981550203167
 40
0.3979532627719061
 40
0.5083540794860377
 40
0.5083540794860377
 40
0.5083540794860377
 40
0.5083540794860377
 10
-26.57655468250022
 20
250.0197833691587
 30
0.0
 10
-26.57416288457893
 20
249.9704671849788
 30
0.0
 10
-26.56962883355466
 20
249.8769804423879
 30
0.0
 10
-26.52764823036458
 20
249.7499360913038
 30
0.0
 10
-26.46143307951246
 20
249.6456527418326
 30
0.0
 10
-26.39602565169714
 20
249.6047699448822
 30
0.0
 10
-26.36447289885088
 20
249.5850479608865
 30
0.0
 11
-26.57655468250022
 21
250.0197833691587
 31
0.0
 11
-26.56243608936362
 21
249.8730198712821
 31
0.0
 11
-26.52078526188319
 21
249.7477031054926
 31
0.0
 11
-26.45368097117843
 21
249.6500884158201
 31
0.0
 11
-26.36447289885088
 21
249.5850479608865
 31
0.0
  0
SPLINE
  5
28F
330
1F
100
AcDbEntity
  8
0
  6
Continuous
 62
     7
100
AcDbSpline
210
0.0
220
0.0
230
1.0
 70
     8
 71
     3
 72
    13
 73
     9
 74
     7
 42
0.000000001
 43
0.0000000001
 44
0.00000001
 40
0.0
 40
0.0
 40
0.0
 40
0.0
 40
0.109699907708215
 40
0.2307268700335965
 40
0.3590803349985339
 40
0.4895631349172145
 40
0.6166588505962144
 40
0.735364629893904
 40
0.735364629893904
 40
0.735364629893904
 40
0.735364629893904
 10
-25.26839367507596
 20
243.5370948010874
 30
0.0
 10
-25.23693707377955
 20
243.5560157274982
 30
0.0
 10
-25.1707758308015
 20
243.5958112714859
 30
0.0
 10
-25.08753504929309
 20
243.6835161102224
 30
0.0
 10
-25.01492162560843
 20
243.7877030735523
 30
0.0
 10
-24.95978098804451
 20
243.904417318583
 30
0.0
 10
-24.92264828601611
 20
244.0252525438773
 30
0.0
 10
-24.91739211881236
 20
244.1072578622107
 30
0.0
 10
-24.91485374671244
 20
244.1468609793645
 30
0.0
 11
-25.26839367507596
 21
243.5370948010874
 31
0.0
 11
-25.17688911632954
 21
243.5976008813502
 31
0.0
 11
-25.09162162846818
 21
243.6834902393974
 31
0.0
 11
-25.01840162785483
 21
243.7889105610705
 31
0.0
 11
-24.9622182357266
 21
243.9066780773691
 31
0.0
 11
-24.92690017469453
 21
244.0287680263398
 31
0.0
 11
-24.91485374671244
 21
244.1468609793645
 31
0.0
  0
SPLINE
  5
290
330
1F
100
AcDbEntity
  8
0
  6
Continuous
 62
     7
100
AcDbSpline
210
0.0
220
0.0
230
1.0
 70
     8
 71
     3
 72
    11
 73
     7
 74
     5
 42
0.000000001
 43
0.0000000001
 44
0.00000001
 40
0.0
 40
0.0
 40
0.0
 40
0.0
 40
0.3250791362946962
 40
0.616982984270843
 40
0.8792265088412764
 40
1.12310098735438
 40
1.12310098735438
 40
1.12310098735438
 40
1.12310098735438
 10
-32.12088105557497
 20
238.6385485683357
 30
0.0
 10
-32.1157143729119
 20
238.5298328158709
 30
0.0
 10
-32.10590826872437
 20
238.3234960770366
 30
0.0
 10
-32.01525813407045
 20
238.0422711432677
 30
0.0
 10
-31.87271916035065
 20
237.8097693831041
 30
0.0
 10
-31.73082256986818
 20
237.715293732327
 30
0.0
 10
-31.66244926754645
 20
237.6697703620537
 30
0.0
 11
-32.12088105557497
 21
238.6385485683357
 31
0.0
 11
-32.09044398710201
 21
238.3148974767716
 31
0.0
 11
-32.00058889176339
 21
238.0371675363448
 31
0.0
 11
-31.85561268247253
 21
237.8186416410753
 31
0.0
 11
-31.66244926754645
 21
237.6697703620537
 31
0.0
  0
SPLINE
  5
291
330
1F
100
AcDbEntity
  8
0
  6
Continuous
 62
     7
100
AcDbSpline
210
0.0
220
0.0
230
1.0
 70
     8
 71
     3
 72
    11
 73
     7
 74
     5
 42
0.000000001
 43
0.0000000001
 44
0.00000001
 40
0.0
 40
0.0
 40
0.0
 40
0.0
 40
0.1920079780481886
 40
0.3926400916861727
 40
0.6090231008840591
 40
0.8452193351047638
 40
0.8452193351047638
 40
0.8452193351047638
 40
0.8452193351047638
 10
-31.66244926754645
 20
237.6697703620537
 30
0.0
 10
-31.60297211337719
 20
237.6449535689373
 30
0.0
 10
-31.48134635381457
 20
237.5942053378657
 30
0.0
 10
-31.27505447721006
 20
237.5855375284028
 30
0.0
 10
-31.05874691879558
 20
237.6226000944722
 30
0.0
 10
-30.92035996960896
 20
237.6840592105865
 30
0.0
 10
-30.84813731346634
 20
237.7161340686467
 30
0.0
 11
-31.66244926754645
 21
237.6697703620537
 31
0.0
 11
-31.48129841698265
 21
237.6061194879227
 31
0.0
 11
-31.28112148713106
 21
237.5926123440094
 31
0.0
 11
-31.06793270521205
 21
237.6296548989899
 31
0.0
 11
-30.84813731346634
 21
237.7161340686467
 31
0.0
  0
SPLINE
  5
292
330
1F
100
AcDbEntity
  8
0
  6
Continuous
 62
     7
100
AcDbSpline
210
0.0
220
0.0
230
1.0
 70
     8
 71
     3
 72
    13
 73
     9
 74
     7
 42
0.000000001
 43
0.0000000001
 44
0.00000001
 40
0.0
 40
0.0
 40
0.0
 40
0.0
 40
0.1755198530686155
 40
0.3691629945299244
 40
0.5745285402103839
 40
0.7833010209345588
 40
0.9866541663296449
 40
1.176583413060673
 40
1.176583413060673
 40
1.176583413060673
 40
1.176583413060673
 10
-25.79875876276505
 20
243.2719122572428
 30
0.0
 10
-25.8490893250502
 20
243.2416387748585
 30
0.0
 10
-25.95494731950488
 20
243.1779659115649
 30
0.0
 10
-26.0881325685768
 20
243.0376381651554
 30
0.0
 10
-26.20431404790773
 20
242.870939023417
 30
0.0
 10
-26.2925390670075
 20
242.6841962300496
 30
0.0
 10
-26.35195139419208
 20
242.4908598697092
 30
0.0
 10
-26.36036125278988
 20
242.359651359397
 30
0.0
 10
-26.36442264814666
 20
242.2962863719995
 30
0.0
 11
-25.79875876276505
 21
243.2719122572428
 31
0.0
 11
-25.94516605675928
 21
243.1751025288223
 31
0.0
 11
-26.08159403733747
 21
243.0376795559469
 31
0.0
 11
-26.19874603831882
 21
242.8690070412698
 31
0.0
 11
-26.288639465724
 21
242.6805790151921
 31
0.0
 11
-26.34514836337531
 21
242.4852350968389
 31
0.0
 11
-26.36442264814666
 21
242.2962863719995
 31
0.0
  0
SPLINE
  5
293
330
1F
100
AcDbEntity
  8
0
  6
Continuous
 62
     7
100
AcDbSpline
210
0.0
220
0.0
230
1.0
 70
     8
 71
     3
 72
    11
 73
     7
 74
     5
 42
0.000000001
 43
0.0000000001
 44
0.00000001
 40
0.0
 40
0.0
 40
0.0
 40
0.0
 40
0.0853368779701611
 40
0.174506704649528
 40
0.2706769297452093
 40
0.3756530338937047
 40
0.3756530338937047
 40
0.3756530338937047
 40
0.3756530338937047
 10
-32.32462851692098
 20
239.8486252599662
 30
0.0
 10
-32.35106280730281
 20
239.8596549456454
 30
0.0
 10
-32.40511870220603
 20
239.8822097068787
 30
0.0
 10
-32.49680397844927
 20
239.8860620706687
 30
0.0
 10
-32.59294066946654
 20
239.8695898156371
 30
0.0
 10
-32.65444598265555
 20
239.8422746606251
 30
0.0
 10
-32.68654494095658
 20
239.8280191681471
 30
0.0
 11
-32.32462851692098
 21
239.8486252599662
 31
0.0
 11
-32.40514000606045
 21
239.8769145373578
 31
0.0
 11
-32.49410753043893
 21
239.8829177124304
 31
0.0
 11
-32.58885810018072
 21
239.8664543546613
 31
0.0
 11
-32.68654494095658
 21
239.8280191681471
 31
0.0
  0
SPLINE
  5
294
330
1F
100
AcDbEntity
  8
0
  6
Continuous
 62
     7
100
AcDbSpline
210
0.0
220
0.0
230
1.0
 70
     8
 71
     3
 72
     9
 73
     5
 74
     3
 42
0.000000001
 43
0.0000000001
 44
0.00000001
 40
0.0
 40
0.0
 40
0.0
 40
0.0
 40
0.1080710256157815
 40
0.233142535277466
 40
0.233142535277466
 40
0.233142535277466
 40
0.233142535277466
 10
-33.44310779366622
 20
239.5499578169165
 30
0.0
 10
-33.40764512436679
 20
239.5388675629708
 30
0.0
 10
-33.33114120682487
 20
239.5149424836644
 30
0.0
 10
-33.25679418664815
 20
239.5461142346638
 30
0.0
 10
-33.21691002864397
 20
239.5628366243034
 30
0.0
 11
-33.44310779366622
 21
239.5499578169165
 31
0.0
 11
-33.33718323587645
 21
239.5285257114233
 31
0.0
 11
-33.21691002864397
 21
239.5628366243034
 31
0.0
  0
SPLINE
  5
295
330
1F
100
AcDbEntity
  8
0
  6
Continuous
 62
     7
100
AcDbSpline
210
0.0
220
0.0
230
1.0
 70
     8
 71
     3
 72
    11
 73
     7
 74
     5
 42
0.000000001
 43
0.0000000001
 44
0.00000001
 40
0.0
 40
0.0
 40
0.0
 40
0.0
 40
0.1444796166832747
 40
0.2742146587965379
 40
0.390767334281272
 40
0.4991559899021952
 40
0.4991559899021952
 40
0.4991559899021952
 40
0.4991559899021952
 10
-32.12088105557497
 20
239.4180571682853
 30
0.0
 10
-32.12317735898956
 20
239.4663752806766
 30
0.0
 10
-32.12753563535008
 20
239.5580804967075
 30
0.0
 10
-32.16782458052715
 20
239.6830693563135
 30
0.0
 10
-32.23117523773529
 20
239.7864034673846
 30
0.0
 10
-32.29424038297519
 20
239.8283926512351
 30
0.0
 10
-32.32462851692098
 20
239.8486252599662
 30
0.0
 11
-32.12088105557497
 21
239.4180571682853
 31
0.0
 11
-32.13440864156295
 21
239.5619020978694
 31
0.0
 11
-32.17434423949124
 21
239.685337626948
 31
0.0
 11
-32.23877811028717
 21
239.7824602470677
 31
0.0
 11
-32.32462851692098
 21
239.8486252599662
 31
0.0
  0
SPLINE
  5
296
330
1F
100
AcDbEntity
  8
0
  6
Continuous
 62
     7
100
AcDbSpline
210
0.0
220
0.0
230
1.0
 70
     8
 71
     3
 72
    11
 73
     7
 74
     5
 42
0.000000001
 43
0.0000000001
 44
0.00000001
 40
0.0
 40
0.0
 40
0.0
 40
0.0
 40
0.0902997607998315
 40
0.1713841611541984
 40
0.2442295819132535
 40
0.311972490666524
 40
0.311972490666524
 40
0.311972490666524
 40
0.311972490666524
 10
-33.57044995700747
 20
239.8190628742171
 30
0.0
 10
-33.56901476736743
 20
239.7888640538479
 30
0.0
 10
-33.566290839355
 20
239.7315482946579
 30
0.0
 10
-33.54111025102098
 20
239.6534302573008
 30
0.0
 10
-33.50151608876638
 20
239.5888464409576
 30
0.0
 10
-33.46210037709923
 20
239.562603197185
 30
0.0
 10
-33.44310779366622
 20
239.5499578169165
 30
0.0
 11
-33.57044995700747
 21
239.8190628742171
 31
0.0
 11
-33.56199521576498
 21
239.729159793227
 31
0.0
 11
-33.53703546705979
 21
239.6520125875529
 31
0.0
 11
-33.49676429781234
 21
239.591310949978
 31
0.0
 11
-33.44310779366622
 21
239.5499578169165
 31
0.0
  0
SPLINE
  5
297
330
1F
100
AcDbEntity
  8
0
  6
Continuous
 62
     7
100
AcDbSpline
210
0.0
220
0.0
230
1.0
 70
     8
 71
     3
 72
    13
 73
     9
 74
     7
 42
0.000000001
 43
0.0000000001
 44
0.00000001
 40
0.0
 40
0.0
 40
0.0
 40
0.0
 40
0.394919670936863
 40
0.830616742851303
 40
1.292689224250138
 40
1.76242730765924
 40
2.219971885441223
 40
2.647312690283574
 40
2.647312690283574
 40
2.647312690283574
 40
2.647312690283574
 10
-27.63716639025545
 20
239.3216195302521
 30
0.0
 10
-27.52392262467444
 20
239.3897348658811
 30
0.0
 10
-27.28574212529766
 20
239.5329987935287
 30
0.0
 10
-26.98607531768058
 20
239.8487362321811
 30
0.0
 10
-26.72466698619548
 20
240.2238093019477
 30
0.0
 10
-26.52616069530954
 20
240.6439805897707
 30
0.0
 10
-26.39248295093764
 20
241.0789874002651
 30
0.0
 10
-26.37356078769298
 20
241.3742065505058
 30
0.0
 10
-26.36442264814673
 20
241.5167777720496
 30
0.0
 11
-27.63716639025545
 21
239.3216195302521
 31
0.0
 11
-27.30774997876837
 21
239.5394414191983
 31
0.0
 11
-27.00078702246742
 21
239.8486431081682
 31
0.0
 11
-26.73719502025939
 21
240.2281562661914
 31
0.0
 11
-26.53493480859771
 21
240.6521193248664
 31
0.0
 11
-26.40778978888227
 21
241.0916431411609
 31
0.0
 11
-26.36442264814673
 21
241.5167777720496
 31
0.0
  0
SPLINE
  5
298
330
1F
100
AcDbEntity
  8
0
  6
Continuous
 62
     7
100
AcDbSpline
210
0.0
220
0.0
230
1.0
 70
     8
 71
     3
 72
    13
 73
     9
 74
     7
 42
0.000000001
 43
0.0000000001
 44
0.00000001
 40
0.0
 40
0.0
 40
0.0
 40
0.0
 40
0.1109132967656461
 40
0.2340628223878686
 40
0.3637524072084086
 40
0.493441992028899
 40
0.6165915176511227
 40
0.7275048144168255
 40
0.7275048144168255
 40
0.7275048144168255
 40
0.7275048144168255
 10
-54.2742319058635
 20
245.728351463603
 30
0.0
 10
-54.24009820017181
 20
245.7139144607428
 30
0.0
 10
-54.16806506865567
 20
245.6834477433512
 30
0.0
 10
-54.04814442740103
 20
245.6608870630835
 30
0.0
 10
-53.92067851527026
 20
245.6521743414702
 30
0.0
 10
-53.79321260313955
 20
245.6608870630835
 30
0.0
 10
-53.67329196188485
 20
245.6834477433512
 30
0.0
 10
-53.60125883036874
 20
245.7139144607428
 30
0.0
 10
-53.56712512467701
 20
245.728351463603
 30
0.0
 11
-54.2742319058635
 21
245.728351463603
 31
0.0
 11
-54.17067844861884
 21
245.6886218656754
 31
0.0
 11
-54.05008803782156
 21
245.6636467023274
 31
0.0
 11
-53.92067851527026
 21
245.655128225551
 31
0.0
 11
-53.79126899271901
 21
245.6636467023274
 31
0.0
 11
-53.67067858192172
 21
245.6886218656753
 31
0.0
 11
-53.56712512467701
 21
245.728351463603
 31
0.0
  0
SPLINE
  5
299
330
1F
100
AcDbEntity
  8
0
  6
Continuous
 62
     7
100
AcDbSpline
210
0.0
220
0.0
230
1.0
 70
     8
 71
     3
 72
    13
 73
     9
 74
     7
 42
0.000000001
 43
0.0000000001
 44
0.00000001
 40
0.0
 40
0.0
 40
0.0
 40
0.0
 40
0.2088377044730387
 40
0.4176718438257333
 40
0.6265039254852228
 40
0.8353360071447574
 40
1.044170146497474
 40
1.2530078509704
 40
1.2530078509704
 40
1.2530078509704
 40
1.2530078509704
 10
-147.1303453406185
 20
246.6945335430538
 30
0.0
 10
-147.0605315046485
 20
246.6998395700814
 30
0.0
 10
-146.9209050264313
 20
246.7104515478466
 30
0.0
 10
-146.725808229963
 20
246.7944070527361
 30
0.0
 10
-146.5580025241714
 20
246.922160265058
 30
0.0
 10
-146.4302493118495
 20
247.0899659708497
 30
0.0
 10
-146.3462938069599
 20
247.285062767318
 30
0.0
 10
-146.3356818291946
 20
247.4246892455351
 30
0.0
 10
-146.3303758021671
 20
247.4945030815051
 30
0.0
 11
-147.1303453406185
 21
246.6945335430538
 31
0.0
 11
-146.9232941598214
 21
246.7217914979825
 31
0.0
 11
-146.7303558594006
 21
246.8017071474356
 31
0.0
 11
-146.5646779107536
 21
246.9288356516403
 31
0.0
 11
-146.437549406549
 21
247.0945136002873
 31
0.0
 11
-146.3576337570958
 21
247.2874519007081
 31
0.0
 11
-146.3303758021671
 21
247.4945030815051
 31
0.0
  0
SPLINE
  5
29A
330
1F
100
AcDbEntity
  8
0
  6
Continuous
 62
     7
100
AcDbSpline
210
0.0
220
0.0
230
1.0
 70
     8
 71
     3
 72
    13
 73
     9
 74
     7
 42
0.000000001
 43
0.0000000001
 44
0.00000001
 40
0.0
 40
0.0
 40
0.0
 40
0.0
 40
0.2088377044728733
 40
0.417671843825616
 40
0.6265039254851107
 40
0.8353360071446626
 40
1.044170146497394
 40
1.253007850970377
 40
1.253007850970377
 40
1.253007850970377
 40
1.253007850970377
 10
-147.009914565106
 20
246.5741027675413
 30
0.0
 10
-146.9401007291361
 20
246.5794087945689
 30
0.0
 10
-146.8004742509189
 20
246.5900207723341
 30
0.0
 10
-146.6053774544506
 20
246.6739762772236
 30
0.0
 10
-146.437571748659
 20
246.8017294895456
 30
0.0
 10
-146.309818536337
 20
246.9695351953372
 30
0.0
 10
-146.2258630314475
 20
247.1646319918057
 30
0.0
 10
-146.2152510536822
 20
247.3042584700227
 30
0.0
 10
-146.2099450266547
 20
247.3740723059927
 30
0.0
 11
-147.009914565106
 21
246.5741027675413
 31
0.0
 11
-146.8028633843091
 21
246.60136072247
 31
0.0
 11
-146.6099250838882
 21
246.6812763719232
 31
0.0
 11
-146.4442471352412
 21
246.8084048761278
 31
0.0
 11
-146.3171186310366
 21
246.9740828247748
 31
0.0
 11
-146.2372029815834
 21
247.1670211251957
 31
0.0
 11
-146.2099450266547
 21
247.3740723059927
 31
0.0
  0
SPLINE
  5
29B
330
1F
100
AcDbEntity
  8
0
  6
Continuous
 62
     7
100
AcDbSpline
210
0.0
220
0.0
230
1.0
 70
     8
 71
     3
 72
    13
 73
     9
 74
     7
 42
0.000000001
 43
0.0000000001
 44
0.00000001
 40
0.0
 40
0.0
 40
0.0
 40
0.0
 40
0.2088377044729186
 40
0.4176718438255895
 40
0.6265039254850376
 40
0.8353360071445549
 40
1.044170146497302
 40
1.253007850970562
 40
1.253007850970562
 40
1.253007850970562
 40
1.253007850970562
 10
-147.4303453406185
 20
251.6945335430538
 30
0.0
 10
-147.3605315046486
 20
251.6998395700814
 30
0.0
 10
-147.2209050264314
 20
251.7104515478466
 30
0.0
 10
-147.025808229963
 20
251.7944070527358
 30
0.0
 10
-146.8580025241713
 20
251.9221602650577
 30
0.0
 10
-146.7302493118495
 20
252.0899659708492
 30
0.0
 10
-146.6462938069599
 20
252.2850627673178
 30
0.0
 10
-146.6356818291947
 20
252.424689245535
 30
0.0
 10
-146.6303758021672
 20
252.4945030815051
 30
0.0
 11
-147.4303453406185
 21
251.6945335430538
 31
0.0
 11
-147.2232941598215
 21
251.7217914979824
 31
0.0
 11
-147.0303558594006
 21
251.8017071474354
 31
0.0
 11
-146.8646779107536
 21
251.9288356516399
 31
0.0
 11
-146.737549406549
 21
252.0945136002869
 31
0.0
 11
-146.6576337570958
 21
252.2874519007078
 31
0.0
 11
-146.6303758021672
 21
252.4945030815051
 31
0.0
  0
SPLINE
  5
29C
330
1F
100
AcDbEntity
  8
0
  6
Continuous
 62
     7
100
AcDbSpline
210
0.0
220
0.0
230
1.0
 70
     8
 71
     3
 72
    13
 73
     9
 74
     7
 42
0.000000001
 43
0.0000000001
 44
0.00000001
 40
0.0
 40
0.0
 40
0.0
 40
0.0
 40
0.2088377044729861
 40
0.4176718438256761
 40
0.6265039254851934
 40
0.8353360071447055
 40
1.0441701464974
 40
1.253007850970439
 40
1.253007850970439
 40
1.253007850970439
 40
1.253007850970439
 10
-147.3099145651061
 20
251.5741027675409
 30
0.0
 10
-147.2401007291362
 20
251.5794087945685
 30
0.0
 10
-147.100474250919
 20
251.5900207723337
 30
0.0
 10
-146.9053774544507
 20
251.6739762772233
 30
0.0
 10
-146.737571748659
 20
251.8017294895451
 30
0.0
 10
-146.6098185363371
 20
251.9695351953368
 30
0.0
 10
-146.5258630314476
 20
252.1646319918052
 30
0.0
 10
-146.5152510536823
 20
252.3042584700223
 30
0.0
 10
-146.5099450266548
 20
252.3740723059923
 30
0.0
 11
-147.3099145651061
 21
251.5741027675409
 31
0.0
 11
-147.1028633843091
 21
251.6013607224696
 31
0.0
 11
-146.9099250838883
 21
251.6812763719228
 31
0.0
 11
-146.7442471352413
 21
251.8084048761274
 31
0.0
 11
-146.6171186310366
 21
251.9740828247744
 31
0.0
 11
-146.5372029815834
 21
252.1670211251952
 31
0.0
 11
-146.5099450266548
 21
252.3740723059923
 31
0.0
  0
SPLINE
  5
29D
330
1F
100
AcDbEntity
  8
0
  6
Continuous
 62
     7
100
AcDbSpline
210
0.0
220
0.0
230
1.0
 70
     8
 71
     3
 72
    13
 73
     9
 74
     7
 42
0.000000001
 43
0.0000000001
 44
0.00000001
 40
0.0
 40
0.0
 40
0.0
 40
0.0
 40
0.2088377044730424
 40
0.4176718438259317
 40
0.6265039254854212
 40
0.8353360071448069
 40
1.044170146497512
 40
1.253007850970551
 40
1.253007850970551
 40
1.253007850970551
 40
1.253007850970551
 10
-146.3303758021671
 20
247.8537024535774
 30
0.0
 10
-146.3356818291947
 20
247.9235162895474
 30
0.0
 10
-146.3462938069599
 20
248.0631427677646
 30
0.0
 10
-146.4302493118494
 20
248.258239564233
 30
0.0
 10
-146.5580025241713
 20
248.4260452700247
 30
0.0
 10
-146.7258082299631
 20
248.5537984823466
 30
0.0
 10
-146.9209050264313
 20
248.6377539872359
 30
0.0
 10
-147.0605315046485
 20
248.6483659650013
 30
0.0
 10
-147.1303453406185
 20
248.6536719920288
 30
0.0
 11
-146.3303758021671
 21
247.8537024535774
 31
0.0
 11
-146.3576337570958
 21
248.0607536343745
 31
0.0
 11
-146.437549406549
 21
248.2536919347955
 31
0.0
 11
-146.5646779107536
 21
248.4193698834425
 31
0.0
 11
-146.7303558594006
 21
248.5464983876469
 31
0.0
 11
-146.9232941598214
 21
248.6264140371001
 31
0.0
 11
-147.1303453406185
 21
248.6536719920288
 31
0.0
  0
SPLINE
  5
29E
330
1F
100
AcDbEntity
  8
0
  6
Continuous
 62
     7
100
AcDbSpline
210
0.0
220
0.0
230
1.0
 70
     8
 71
     3
 72
    13
 73
     9
 74
     7
 42
0.000000001
 43
0.0000000001
 44
0.00000001
 40
0.0
 40
0.0
 40
0.0
 40
0.0
 40
0.2088377044729542
 40
0.4176718438256596
 40
0.6265039254851943
 40
0.8353360071446838
 40
1.044170146497378
 40
1.253007850970333
 40
1.253007850970333
 40
1.253007850970333
 40
1.253007850970333
 10
-146.2099450266547
 20
247.9741332290899
 30
0.0
 10
-146.2152510536823
 20
248.0439470650599
 30
0.0
 10
-146.2258630314474
 20
248.1835735432769
 30
0.0
 10
-146.309818536337
 20
248.3786703397454
 30
0.0
 10
-146.4375717486589
 20
248.5464760455368
 30
0.0
 10
-146.6053774544505
 20
248.6742292578589
 30
0.0
 10
-146.8004742509189
 20
248.7581847627484
 30
0.0
 10
-146.940100729136
 20
248.7687967405135
 30
0.0
 10
-147.009914565106
 20
248.7741027675412
 30
0.0
 11
-146.2099450266547
 21
247.9741332290899
 31
0.0
 11
-146.2372029815834
 21
248.1811844098869
 31
0.0
 11
-146.3171186310366
 21
248.3741227103077
 31
0.0
 11
-146.4442471352412
 21
248.5398006589547
 31
0.0
 11
-146.6099250838881
 21
248.6669291631594
 31
0.0
 11
-146.802863384309
 21
248.7468448126126
 31
0.0
 11
-147.009914565106
 21
248.7741027675412
 31
0.0
  0
SPLINE
  5
29F
330
1F
100
AcDbEntity
  8
0
  6
Continuous
 62
     7
100
AcDbSpline
210
0.0
220
0.0
230
1.0
 70
     8
 71
     3
 72
     9
 73
     5
 74
     3
 42
0.000000001
 43
0.0000000001
 44
0.00000001
 40
0.0
 40
0.0
 40
0.0
 40
0.0
 40
0.4138356766491454
 40
0.7094655249677156
 40
0.7094655249677156
 40
0.7094655249677156
 40
0.7094655249677156
 10
-144.4236790196652
 20
244.5734810535882
 30
0.0
 10
-144.401173068335
 20
244.7184005040043
 30
0.0
 10
-144.3625896298489
 20
244.9668453722825
 30
0.0
 10
-144.152696697165
 20
245.0962340348041
 30
0.0
 10
-144.0652356189144
 20
245.1501494756965
 30
0.0
 11
-144.4236790196652
 21
244.5734810535882
 31
0.0
 11
-144.297873753003
 21
244.9677309801341
 31
0.0
 11
-144.0652356189144
 21
245.1501494756965
 31
0.0
  0
SPLINE
  5
2A0
330
1F
100
AcDbEntity
  8
0
  6
Continuous
 62
     7
100
AcDbSpline
210
0.0
220
0.0
230
1.0
 70
     8
 71
     3
 72
     9
 73
     5
 74
     3
 42
0.000000001
 43
0.0000000001
 44
0.00000001
 40
0.0
 40
0.0
 40
0.0
 40
0.0
 40
0.1941377895040358
 40
0.474032156675573
 40
0.474032156675573
 40
0.474032156675573
 40
0.474032156675573
 10
-144.0688941825232
 20
244.9474156571652
 30
0.0
 10
-144.1235077560585
 20
244.9081341483347
 30
0.0
 10
-144.2568593685292
 20
244.8122192780222
 30
0.0
 10
-144.2745767696371
 20
244.6455562362233
 30
0.0
 10
-144.2850380768193
 20
244.5471493068382
 30
0.0
 11
-144.0688941825232
 21
244.9474156571652
 31
0.0
 11
-144.2133398502831
 21
244.8177047035443
 31
0.0
 11
-144.2850380768193
 21
244.5471493068382
 31
0.0
  0
SPLINE
  5
2A1
330
1F
100
AcDbEntity
  8
0
  6
Continuous
 62
     7
100
AcDbSpline
210
0.0
220
0.0
230
1.0
 70
     8
 71
     3
 72
     9
 73
     5
 74
     3
 42
0.000000001
 43
0.0000000001
 44
0.00000001
 40
0.0
 40
0.0
 40
0.0
 40
0.0
 40
0.2380515634122258
 40
0.4201158127734639
 40
0.4201158127734639
 40
0.4201158127734639
 40
0.4201158127734639
 10
-143.8626188251166
 20
244.6007570801532
 30
0.0
 10
-143.8746894950714
 20
244.6836935056125
 30
0.0
 10
-143.8959919525444
 20
244.83006054165
 30
0.0
 10
-144.0166185938369
 20
244.9119342954102
 30
0.0
 10
-144.0688941825232
 20
244.9474156571652
 30
0.0
 11
-143.8626188251166
 21
244.6007570801532
 31
0.0
 11
-143.9307211763987
 21
244.8288592895571
 31
0.0
 11
-144.0688941825232
 21
244.9474156571652
 31
0.0
  0
SPLINE
  5
2A2
330
1F
100
AcDbEntity
  8
0
  6
Continuous
 62
     7
100
AcDbSpline
210
0.0
220
0.0
230
1.0
 70
     8
 71
     3
 72
     9
 73
     5
 74
     3
 42
0.000000001
 43
0.0000000001
 44
0.00000001
 40
0.0
 40
0.0
 40
0.0
 40
0.0
 40
0.2983184036514047
 40
0.6811263537455576
 40
0.6811263537455576
 40
0.6811263537455576
 40
0.6811263537455576
 10
-144.0652356189144
 20
245.1501494756965
 30
0.0
 10
-143.977937891376
 20
245.0939804024017
 30
0.0
 10
-143.7786180436381
 20
244.9657340737518
 30
0.0
 10
-143.7435994733279
 20
244.7279065863106
 30
0.0
 10
-143.7239182780658
 20
244.5942423172327
 30
0.0
 11
-144.0652356189144
 21
245.1501494756965
 31
0.0
 11
-143.8348594974316
 21
244.9606218673181
 31
0.0
 11
-143.7239182780658
 21
244.5942423172327
 31
0.0
  0
SPLINE
  5
2A3
330
1F
100
AcDbEntity
  8
0
  6
Continuous
 62
     7
100
AcDbSpline
210
0.0
220
0.0
230
1.0
 70
     8
 71
     3
 72
    13
 73
     9
 74
     7
 42
0.000000001
 43
0.0000000001
 44
0.00000001
 40
0.0
 40
0.0
 40
0.0
 40
0.0
 40
0.4698848373590233
 40
0.9397616540080345
 40
1.409633840492162
 40
1.87950602697629
 40
2.349382843625113
 40
2.819267680984023
 40
2.819267680984023
 40
2.819267680984023
 40
2.819267680984023
 10
-144.8304443406516
 20
255.1945335430534
 30
0.0
 10
-144.9875254723512
 20
255.1825949821832
 30
0.0
 10
-145.3016850525369
 20
255.1587180499374
 30
0.0
 10
-145.7406528459605
 20
254.969818155421
 30
0.0
 10
-146.1182156870384
 20
254.6823734279247
 30
0.0
 10
-146.4056604145348
 20
254.3048105868468
 30
0.0
 10
-146.5945603090512
 20
253.8658427934233
 30
0.0
 10
-146.6184372412969
 20
253.5516832132378
 30
0.0
 10
-146.6303758021672
 20
253.3946020815382
 30
0.0
 11
-144.8304443406516
 21
255.1945335430534
 31
0.0
 11
-145.2963094974449
 21
255.1332031444639
 31
0.0
 11
-145.7304206733918
 21
254.9533929331942
 31
0.0
 11
-146.1031960578476
 21
254.6673537987338
 31
0.0
 11
-146.389235192308
 21
254.2945784142781
 31
0.0
 11
-146.5690454035777
 21
253.8604672383314
 31
0.0
 11
-146.6303758021672
 21
253.3946020815382
 31
0.0
  0
SPLINE
  5
2A4
330
1F
100
AcDbEntity
  8
0
  6
Continuous
 62
     7
100
AcDbSpline
210
0.0
220
0.0
230
1.0
 70
     8
 71
     3
 72
    13
 73
     9
 74
     7
 42
0.000000001
 43
0.0000000001
 44
0.00000001
 40
0.0
 40
0.0
 40
0.0
 40
0.0
 40
0.4698848373589632
 40
0.9397616540080114
 40
1.409633840492139
 40
1.879506026976222
 40
2.349382843625217
 40
2.819267680984265
 40
2.819267680984265
 40
2.819267680984265
 40
2.819267680984265
 10
-144.7100135651393
 20
255.0741027675409
 30
0.0
 10
-144.8670946968388
 20
255.0621642066706
 30
0.0
 10
-145.1812542770246
 20
255.038287274425
 30
0.0
 10
-145.6202220704481
 20
254.8493873799085
 30
0.0
 10
-145.9977849115261
 20
254.5619426524122
 30
0.0
 10
-146.2852296390225
 20
254.1843798113343
 30
0.0
 10
-146.4741295335389
 20
253.7454120179107
 30
0.0
 10
-146.4980064657845
 20
253.431252437725
 30
0.0
 10
-146.5099450266548
 20
253.2741713060254
 30
0.0
 11
-144.7100135651393
 21
255.0741027675409
 31
0.0
 11
-145.1758787219325
 21
255.0127723689514
 31
0.0
 11
-145.6099898978795
 21
254.8329621576817
 31
0.0
 11
-145.9827652823352
 21
254.5469230232213
 31
0.0
 11
-146.2688044167956
 21
254.1741476387656
 31
0.0
 11
-146.4486146280653
 21
253.7400364628188
 31
0.0
 11
-146.5099450266548
 21
253.2741713060254
 31
0.0
  0
SPLINE
  5
2A5
330
1F
100
AcDbEntity
  8
0
  6
Continuous
 62
     7
100
AcDbSpline
210
0.0
220
0.0
230
1.0
 70
     8
 71
     3
 72
     9
 73
     5
 74
     3
 42
0.000000001
 43
0.0000000001
 44
0.00000001
 40
0.0
 40
0.0
 40
0.0
 40
0.0
 40
0.462510610175274
 40
0.786327060825799
 40
0.786327060825799
 40
0.786327060825799
 40
0.786327060825799
 10
-144.1696595905487
 20
243.8821651165751
 30
0.0
 10
-144.0866350566004
 20
244.0138395243297
 30
0.0
 10
-143.9454827722884
 20
244.237702829497
 30
0.0
 10
-143.8867893063873
 20
244.4948582124506
 30
0.0
 10
-143.8626188251166
 20
244.6007570801532
 30
0.0
 11
-144.1696595905487
 21
243.8821651165751
 31
0.0
 11
-143.9491141811868
 21
244.2887063666103
 31
0.0
 11
-143.8626188251166
 21
244.6007570801532
 31
0.0
  0
SPLINE
  5
2A6
330
1F
100
AcDbEntity
  8
0
  6
Continuous
 62
     7
100
AcDbSpline
210
0.0
220
0.0
230
1.0
 70
     8
 71
     3
 72
     9
 73
     5
 74
     3
 42
0.000000001
 43
0.0000000001
 44
0.00000001
 40
0.0
 40
0.0
 40
0.0
 40
0.0
 40
0.3760305460393445
 40
0.9000122678818567
 40
0.9000122678818567
 40
0.9000122678818567
 40
0.9000122678818567
 10
-143.7239182780658
 20
244.5942423172327
 30
0.0
 10
-143.7466886664623
 20
244.4700207384634
 30
0.0
 10
-143.8011885906669
 20
244.1727019596193
 30
0.0
 10
-143.9591507083583
 20
243.9136968176047
 30
0.0
 10
-144.0511153128015
 20
243.7629055883688
 30
0.0
 11
-143.7239182780658
 21
244.5942423172327
 31
0.0
 11
-143.8102900044653
 21
244.2282656822472
 31
0.0
 11
-144.0511153128015
 21
243.7629055883688
 31
0.0
  0
SPLINE
  5
2A7
330
1F
100
AcDbEntity
  8
0
  6
Continuous
 62
     7
100
AcDbSpline
210
0.0
220
0.0
230
1.0
 70
     8
 71
     3
 72
     9
 73
     5
 74
     3
 42
0.000000001
 43
0.0000000001
 44
0.00000001
 40
0.0
 40
0.0
 40
0.0
 40
0.0
 40
0.2892810433162559
 40
0.6298979591215715
 40
0.6298979591215715
 40
0.6298979591215715
 40
0.6298979591215715
 10
-144.4381368627481
 20
243.3143724833041
 30
0.0
 10
-144.4073342355109
 20
243.4060824986312
 30
0.0
 10
-144.3402627220491
 20
243.6057773995252
 30
0.0
 10
-144.2295353534752
 20
243.7851626582843
 30
0.0
 10
-144.1696595905487
 20
243.8821651165751
 30
0.0
 11
-144.4381368627481
 21
243.3143724833041
 31
0.0
 11
-144.3365214663116
 21
243.5852189964282
 31
0.0
 11
-144.1696595905487
 21
243.8821651165751
 31
0.0
  0
SPLINE
  5
2A8
330
1F
100
AcDbEntity
  8
0
  6
Continuous
 62
     7
100
AcDbSpline
210
0.0
220
0.0
230
1.0
 70
     8
 71
     3
 72
     9
 73
     5
 74
     3
 42
0.000000001
 43
0.0000000001
 44
0.00000001
 40
0.0
 40
0.0
 40
0.0
 40
0.0
 40
0.0869437155758048
 40
0.1716674555086789
 40
0.1716674555086789
 40
0.1716674555086789
 40
0.1716674555086789
 10
-144.4538942096133
 20
243.143687395085
 30
0.0
 10
-144.4535896449447
 20
243.1727219368911
 30
0.0
 10
-144.4529882722964
 20
243.2300496662858
 30
0.0
 10
-144.4430444752583
 20
243.2865082494976
 30
0.0
 10
-144.4381368627481
 20
243.3143724833041
 30
0.0
 11
-144.4538942096133
 21
243.143687395085
 31
0.0
 11
-144.4505841013564
 21
243.2305680773826
 31
0.0
 11
-144.4381368627481
 21
243.3143724833041
 31
0.0
  0
SPLINE
  5
2A9
330
1F
100
AcDbEntity
  8
0
  6
Continuous
 62
     7
100
AcDbSpline
210
0.0
220
0.0
230
1.0
 70
     8
 71
     3
 72
     9
 73
     5
 74
     3
 42
0.000000001
 43
0.0000000001
 44
0.00000001
 40
0.0
 40
0.0
 40
0.0
 40
0.0
 40
0.2763704334169212
 40
0.4393863369009335
 40
0.4393863369009335
 40
0.4393863369009335
 40
0.4393863369009335
 10
-144.0511153128015
 20
243.7629055883688
 30
0.0
 10
-144.1021759813117
 20
243.6859261335672
 30
0.0
 10
-144.183354545358
 20
243.5635406703509
 30
0.0
 10
-144.242293267896
 20
243.4292290076185
 30
0.0
 10
-144.2641600060274
 20
243.3793982852506
 30
0.0
 11
-144.0511153128015
 21
243.7629055883688
 31
0.0
 11
-144.195498537968
 21
243.527248844194
 31
0.0
 11
-144.2641600060274
 21
243.3793982852506
 31
0.0
  0
SPLINE
  5
2AA
330
1F
100
AcDbEntity
  8
0
  6
Continuous
 62
     7
100
AcDbSpline
210
0.0
220
0.0
230
1.0
 70
     8
 71
     3
 72
    13
 73
     9
 74
     7
 42
0.000000001
 43
0.0000000001
 44
0.00000001
 40
0.0
 40
0.0
 40
0.0
 40
0.0
 40
0.1305235646071099
 40
0.2610449007709321
 40
0.391564950983091
 40
0.5220850011952499
 40
0.6526063373590721
 40
0.7831299019662458
 40
0.7831299019662458
 40
0.7831299019662458
 40
0.7831299019662458
 10
-136.5599450266549
 20
251.0741218060088
 30
0.0
 10
-136.5632612935296
 20
251.1177554532599
 30
0.0
 10
-136.5698937849508
 20
251.2050220008865
 30
0.0
 10
-136.6223659729522
 20
251.3269574982682
 30
0.0
 10
-136.7022117307217
 20
251.431836063474
 30
0.0
 10
-136.8070902959275
 20
251.5116818212435
 30
0.0
 10
-136.9290257933093
 20
251.5641540092451
 30
0.0
 10
-137.0162923409359
 20
251.5707865006661
 30
0.0
 10
-137.059925988187
 20
251.5741027675409
 30
0.0
 11
-136.5599450266549
 21
251.0741218060088
 31
0.0
 11
-136.5769812484853
 21
251.2035287940069
 31
0.0
 11
-136.6269285293935
 21
251.32411523177
 31
0.0
 11
-136.7063838445214
 21
251.4276639496743
 31
0.0
 11
-136.8099325624258
 21
251.5071192648022
 31
0.0
 11
-136.9305190001888
 21
251.5570665457105
 31
0.0
 11
-137.059925988187
 21
251.5741027675409
 31
0.0
  0
SPLINE
  5
2AB
330
1F
100
AcDbEntity
  8
0
  6
Continuous
 62
     7
100
AcDbSpline
210
0.0
220
0.0
230
1.0
 70
     8
 71
     3
 72
    13
 73
     9
 74
     7
 42
0.000000001
 43
0.0000000001
 44
0.00000001
 40
0.0
 40
0.0
 40
0.0
 40
0.0
 40
0.2088377044729786
 40
0.4176718438256732
 40
0.6265039254851905
 40
0.8353360071446905
 40
1.044170146497422
 40
1.253007850970405
 40
1.253007850970405
 40
1.253007850970405
 40
1.253007850970405
 10
-146.509945026655
 20
229.5741332290896
 30
0.0
 10
-146.5152510536825
 20
229.6439470650595
 30
0.0
 10
-146.5258630314478
 20
229.7835735432767
 30
0.0
 10
-146.6098185363373
 20
229.9786703397451
 30
0.0
 10
-146.7375717486591
 20
230.1464760455367
 30
0.0
 10
-146.9053774544508
 20
230.2742292578586
 30
0.0
 10
-147.1004742509191
 20
230.3581847627481
 30
0.0
 10
-147.2401007291363
 20
230.3687967405133
 30
0.0
 10
-147.3099145651063
 20
230.3741027675409
 30
0.0
 11
-146.509945026655
 21
229.5741332290896
 31
0.0
 11
-146.5372029815836
 21
229.7811844098866
 31
0.0
 11
-146.6171186310368
 21
229.9741227103075
 31
0.0
 11
-146.7442471352414
 21
230.1398006589545
 31
0.0
 11
-146.9099250838884
 21
230.266929163159
 31
0.0
 11
-147.1028633843093
 21
230.3468448126123
 31
0.0
 11
-147.3099145651063
 21
230.3741027675409
 31
0.0
  0
SPLINE
  5
2AC
330
1F
100
AcDbEntity
  8
0
  6
Continuous
 62
     7
100
AcDbSpline
210
0.0
220
0.0
230
1.0
 70
     8
 71
     3
 72
    13
 73
     9
 74
     7
 42
0.000000001
 43
0.0000000001
 44
0.00000001
 40
0.0
 40
0.0
 40
0.0
 40
0.0
 40
0.1305235646071062
 40
0.2610449007709283
 40
0.3915649509831046
 40
0.5220850011952636
 40
0.6526063373590595
 40
0.7831299019662613
 40
0.7831299019662613
 40
0.7831299019662613
 40
0.7831299019662613
 10
-148.559945026655
 20
230.874083729073
 30
0.0
 10
-148.5566287597803
 20
230.830450081822
 30
0.0
 10
-148.5499962683591
 20
230.7431835341953
 30
0.0
 10
-148.4975240803578
 20
230.6212480368136
 30
0.0
 10
-148.4176783225881
 20
230.5163694716078
 30
0.0
 10
-148.3127997573824
 20
230.4365237138383
 30
0.0
 10
-148.1908642600006
 20
230.3840515258368
 30
0.0
 10
-148.103597712374
 20
230.3774190344157
 30
0.0
 10
-148.0599640651229
 20
230.3741027675409
 30
0.0
 11
-148.559945026655
 21
230.874083729073
 31
0.0
 11
-148.5429088048246
 21
230.7446767410749
 31
0.0
 11
-148.4929615239164
 21
230.6240903033118
 31
0.0
 11
-148.4135062087885
 21
230.5205415854075
 31
0.0
 11
-148.3099574908841
 21
230.4410862702796
 31
0.0
 11
-148.1893710531211
 21
230.3911389893713
 31
0.0
 11
-148.0599640651229
 21
230.3741027675409
 31
0.0
  0
SPLINE
  5
2AD
330
1F
100
AcDbEntity
  8
0
  6
Continuous
 62
     7
100
AcDbSpline
210
0.0
220
0.0
230
1.0
 70
     8
 71
     3
 72
    13
 73
     9
 74
     7
 42
0.000000001
 43
0.0000000001
 44
0.00000001
 40
0.0
 40
0.0
 40
0.0
 40
0.0
 40
0.1305235646071625
 40
0.2610449007709476
 40
0.3915649509831411
 40
0.5220850011953346
 40
0.6526063373591677
 40
0.7831299019663414
 40
0.7831299019663414
 40
0.7831299019663414
 40
0.7831299019663414
 10
-148.6803758021674
 20
230.7536529535606
 30
0.0
 10
-148.6770595352927
 20
230.7100193063095
 30
0.0
 10
-148.6704270438716
 20
230.622752758683
 30
0.0
 10
-148.6179548558702
 20
230.5008172613011
 30
0.0
 10
-148.5381090981005
 20
230.3959386960954
 30
0.0
 10
-148.4332305328948
 20
230.3160929383257
 30
0.0
 10
-148.311295035513
 20
230.2636207503243
 30
0.0
 10
-148.2240284878864
 20
230.2569882589031
 30
0.0
 10
-148.1803948406353
 20
230.2536719920284
 30
0.0
 11
-148.6803758021674
 21
230.7536529535606
 31
0.0
 11
-148.663339580337
 21
230.6242459655624
 31
0.0
 11
-148.6133922994288
 21
230.5036595277994
 31
0.0
 11
-148.5339369843009
 21
230.400110809895
 31
0.0
 11
-148.4303882663965
 21
230.3206554947671
 31
0.0
 11
-148.3098018286335
 21
230.2707082138588
 31
0.0
 11
-148.1803948406353
 21
230.2536719920284
 31
0.0
  0
SPLINE
  5
2AE
330
1F
100
AcDbEntity
  8
0
  6
Continuous
 62
     7
100
AcDbSpline
210
0.0
220
0.0
230
1.0
 70
     8
 71
     3
 72
    13
 73
     9
 74
     7
 42
0.000000001
 43
0.0000000001
 44
0.00000001
 40
0.0
 40
0.0
 40
0.0
 40
0.0
 40
0.4698848373593014
 40
0.9397616540084022
 40
1.409633840492513
 40
1.879506026976595
 40
2.349382843625607
 40
2.819267680984658
 40
2.819267680984658
 40
2.819267680984658
 40
2.819267680984658
 10
-146.6303758021673
 20
228.5536034535443
 30
0.0
 10
-146.618437241297
 20
228.3965223218446
 30
0.0
 10
-146.5945603090514
 20
228.0823627416588
 30
0.0
 10
-146.405660414535
 20
227.643394948235
 30
0.0
 10
-146.1182156870386
 20
227.265832107157
 30
0.0
 10
-145.7406528459608
 20
226.9783873796607
 30
0.0
 10
-145.3016850525371
 20
226.7894874851444
 30
0.0
 10
-144.9875254723514
 20
226.7656105528987
 30
0.0
 10
-144.8304443406518
 20
226.7536719920284
 30
0.0
 11
-146.6303758021673
 21
228.5536034535443
 31
0.0
 11
-146.5690454035778
 21
228.0877382967507
 31
0.0
 11
-146.3892351923081
 21
227.6536271208037
 31
0.0
 11
-146.1031960578477
 21
227.280851736348
 31
0.0
 11
-145.7304206733921
 21
226.9948126018876
 31
0.0
 11
-145.2963094974452
 21
226.8150023906179
 31
0.0
 11
-144.8304443406518
 21
226.7536719920284
 31
0.0
  0
SPLINE
  5
2AF
330
1F
100
AcDbEntity
  8
0
  6
Continuous
 62
     7
100
AcDbSpline
210
0.0
220
0.0
230
1.0
 70
     8
 71
     3
 72
    13
 73
     9
 74
     7
 42
0.000000001
 43
0.0000000001
 44
0.00000001
 40
0.0
 40
0.0
 40
0.0
 40
0.0
 40
0.4698848373589706
 40
0.9397616540079817
 40
1.409633840492092
 40
1.87950602697622
 40
2.349382843625257
 40
2.819267680984308
 40
2.819267680984308
 40
2.819267680984308
 40
2.819267680984308
 10
-146.509945026655
 20
228.6740342290564
 30
0.0
 10
-146.4980064657847
 20
228.5169530973568
 30
0.0
 10
-146.474129533539
 20
228.2027935171712
 30
0.0
 10
-146.2852296390226
 20
227.7638257237476
 30
0.0
 10
-145.9977849115263
 20
227.3862628826696
 30
0.0
 10
-145.6202220704483
 20
227.0988181551732
 30
0.0
 10
-145.1812542770247
 20
226.9099182606569
 30
0.0
 10
-144.867094696839
 20
226.8860413284112
 30
0.0
 10
-144.7100135651394
 20
226.8741027675409
 30
0.0
 11
-146.509945026655
 21
228.6740342290564
 31
0.0
 11
-146.4486146280655
 21
228.2081690722631
 31
0.0
 11
-146.2688044167958
 21
227.7740578963162
 31
0.0
 11
-145.9827652823354
 21
227.4012825118605
 31
0.0
 11
-145.6099898978797
 21
227.1152433774001
 31
0.0
 11
-145.1758787219327
 21
226.9354331661304
 31
0.0
 11
-144.7100135651394
 21
226.8741027675409
 31
0.0
  0
SPLINE
  5
2B0
330
1F
100
AcDbEntity
  8
0
  6
Continuous
 62
     7
100
AcDbSpline
210
0.0
220
0.0
230
1.0
 70
     8
 71
     3
 72
    13
 73
     9
 74
     7
 42
0.000000001
 43
0.0000000001
 44
0.00000001
 40
0.0
 40
0.0
 40
0.0
 40
0.0
 40
0.4698848373589914
 40
0.9397616540079763
 40
1.409633840492057
 40
1.879506026976163
 40
2.349382843625233
 40
2.819267680984256
 40
2.819267680984256
 40
2.819267680984256
 40
2.819267680984256
 10
-140.4098764881738
 20
226.8741027675409
 30
0.0
 10
-140.2527953564742
 20
226.8860413284111
 30
0.0
 10
-139.9386357762886
 20
226.9099182606569
 30
0.0
 10
-139.4996679828649
 20
227.0988181551733
 30
0.0
 10
-139.122105141787
 20
227.3862628826694
 30
0.0
 10
-138.8346604142906
 20
227.7638257237474
 30
0.0
 10
-138.6457605197742
 20
228.202793517171
 30
0.0
 10
-138.6218835875285
 20
228.5169530973567
 30
0.0
 10
-138.6099450266582
 20
228.6740342290563
 30
0.0
 11
-140.4098764881738
 21
226.8741027675409
 31
0.0
 11
-139.9440113313805
 21
226.9354331661304
 31
0.0
 11
-139.5099001554336
 21
227.1152433774001
 31
0.0
 11
-139.1371247709779
 21
227.4012825118604
 31
0.0
 11
-138.8510856365175
 21
227.774057896316
 31
0.0
 11
-138.6712754252477
 21
228.208169072263
 31
0.0
 11
-138.6099450266582
 21
228.6740342290563
 31
0.0
  0
SPLINE
  5
2B1
330
1F
100
AcDbEntity
  8
0
  6
Continuous
 62
     7
100
AcDbSpline
210
0.0
220
0.0
230
1.0
 70
     8
 71
     3
 72
    13
 73
     9
 74
     7
 42
0.000000001
 43
0.0000000001
 44
0.00000001
 40
0.0
 40
0.0
 40
0.0
 40
0.0
 40
0.1305235646075081
 40
0.2610449007713936
 40
0.3915649509833722
 40
0.5220850011954913
 40
0.6526063373593634
 40
0.783129901966537
 40
0.783129901966537
 40
0.783129901966537
 40
0.783129901966537
 10
-136.4395142511423
 20
251.1945525815212
 30
0.0
 10
-136.442830518017
 20
251.2381862287724
 30
0.0
 10
-136.4494630094381
 20
251.3254527763991
 30
0.0
 10
-136.5019351974396
 20
251.4473882737811
 30
0.0
 10
-136.5817809552093
 20
251.5522668389867
 30
0.0
 10
-136.686659520415
 20
251.6321125967561
 30
0.0
 10
-136.8085950177967
 20
251.6845847847579
 30
0.0
 10
-136.8958615654233
 20
251.6912172761789
 30
0.0
 10
-136.9394952126744
 20
251.6945335430537
 30
0.0
 11
-136.4395142511423
 21
251.1945525815212
 31
0.0
 11
-136.4565504729727
 21
251.3239595695197
 31
0.0
 11
-136.506497753881
 21
251.4445460072828
 31
0.0
 11
-136.5859530690089
 21
251.548094725187
 31
0.0
 11
-136.6895017869132
 21
251.6275500403148
 31
0.0
 11
-136.8100882246762
 21
251.6774973212233
 31
0.0
 11
-136.9394952126744
 21
251.6945335430537
 31
0.0
  0
SPLINE
  5
2B2
330
1F
100
AcDbEntity
  8
0
  6
Continuous
 62
     7
100
AcDbSpline
210
0.0
220
0.0
230
1.0
 70
     8
 71
     3
 72
    13
 73
     9
 74
     7
 42
0.000000001
 43
0.0000000001
 44
0.00000001
 40
0.0
 40
0.0
 40
0.0
 40
0.0
 40
0.1305235646071662
 40
0.2610449007709993
 40
0.391564950983153
 40
0.522085001195272
 40
0.6526063373589213
 40
0.7831299019658977
 40
0.7831299019658977
 40
0.7831299019658977
 40
0.7831299019658977
 10
-148.1803948406352
 20
251.6945335430534
 30
0.0
 10
-148.2240284878863
 20
251.6912172761787
 30
0.0
 10
-148.3112950355129
 20
251.6845847847576
 30
0.0
 10
-148.4332305328946
 20
251.6321125967561
 30
0.0
 10
-148.5381090981004
 20
251.5522668389866
 30
0.0
 10
-148.6179548558699
 20
251.4473882737808
 30
0.0
 10
-148.6704270438714
 20
251.3254527763992
 30
0.0
 10
-148.6770595352926
 20
251.2381862287727
 30
0.0
 10
-148.6803758021673
 20
251.1945525815217
 30
0.0
 11
-148.1803948406352
 21
251.6945335430534
 31
0.0
 11
-148.3098018286333
 21
251.677497321223
 31
0.0
 11
-148.4303882663964
 21
251.6275500403148
 31
0.0
 11
-148.5339369843007
 21
251.5480947251868
 31
0.0
 11
-148.6133922994286
 21
251.4445460072825
 31
0.0
 11
-148.6633395803369
 21
251.3239595695196
 31
0.0
 11
-148.6803758021673
 21
251.1945525815217
 31
0.0
  0
SPLINE
  5
2B3
330
1F
100
AcDbEntity
  8
0
  6
Continuous
 62
     7
100
AcDbSpline
210
0.0
220
0.0
230
1.0
 70
     8
 71
     3
 72
    13
 73
     9
 74
     7
 42
0.000000001
 43
0.0000000001
 44
0.00000001
 40
0.0
 40
0.0
 40
0.0
 40
0.0
 40
0.1305235646071662
 40
0.2610449007709404
 40
0.3915649509831391
 40
0.5220850011953033
 40
0.652606337359073
 40
0.7831299019662148
 40
0.7831299019662148
 40
0.7831299019662148
 40
0.7831299019662148
 10
-148.0599640651228
 20
246.5741027675413
 30
0.0
 10
-148.1035977123739
 20
246.5707865006665
 30
0.0
 10
-148.1908642600004
 20
246.5641540092454
 30
0.0
 10
-148.3127997573824
 20
246.5116818212442
 30
0.0
 10
-148.417678322588
 20
246.4318360634745
 30
0.0
 10
-148.4975240803576
 20
246.3269574982687
 30
0.0
 10
-148.5499962683591
 20
246.2050220008869
 30
0.0
 10
-148.5566287597802
 20
246.1177554532604
 30
0.0
 10
-148.5599450266549
 20
246.0741218060093
 30
0.0
 11
-148.0599640651228
 21
246.5741027675413
 31
0.0
 11
-148.189371053121
 21
246.5570665457109
 31
0.0
 11
-148.309957490884
 21
246.5071192648027
 31
0.0
 11
-148.4135062087884
 21
246.4276639496748
 31
0.0
 11
-148.4929615239163
 21
246.3241152317704
 31
0.0
 11
-148.5429088048245
 21
246.2035287940074
 31
0.0
 11
-148.5599450266549
 21
246.0741218060093
 31
0.0
  0
SPLINE
  5
2B4
330
1F
100
AcDbEntity
  8
0
  6
Continuous
 62
     7
100
AcDbSpline
210
0.0
220
0.0
230
1.0
 70
     8
 71
     3
 72
     9
 73
     5
 74
     3
 42
0.000000001
 43
0.0000000001
 44
0.00000001
 40
0.0
 40
0.0
 40
0.0
 40
0.0
 40
0.3032495724341623
 40
0.5966554098564777
 40
0.5966554098564777
 40
0.5966554098564777
 40
0.5966554098564777
 10
-139.4826578660957
 20
249.9416060166099
 30
0.0
 10
-139.4152930536073
 20
250.0179200612222
 30
0.0
 10
-139.2827501630108
 20
250.1680709441133
 30
0.0
 10
-139.203197677931
 20
250.3518171237652
 30
0.0
 10
-139.1640776799459
 20
250.4421744785532
 30
0.0
 11
-139.4826578660957
 21
249.9416060166099
 31
0.0
 11
-139.2942517667864
 21
250.1792263978114
 31
0.0
 11
-139.1640776799459
 21
250.4421744785532
 31
0.0
  0
SPLINE
  5
2B5
330
1F
100
AcDbEntity
  8
0
  6
Continuous
 62
     7
100
AcDbSpline
210
0.0
220
0.0
230
1.0
 70
     8
 71
     3
 72
    13
 73
     9
 74
     7
 42
0.000000001
 43
0.0000000001
 44
0.00000001
 40
0.0
 40
0.0
 40
0.0
 40
0.0
 40
0.1305235646071625
 40
0.2610449007709476
 40
0.3915649509831012
 40
0.5220850011952827
 40
0.6526063373590633
 40
0.783129901966205
 40
0.783129901966205
 40
0.783129901966205
 40
0.783129901966205
 10
-148.0599640651228
 20
251.5741027675409
 30
0.0
 10
-148.1035977123739
 20
251.5707865006662
 30
0.0
 10
-148.1908642600005
 20
251.564154009245
 30
0.0
 10
-148.3127997573823
 20
251.5116818212438
 30
0.0
 10
-148.4176783225879
 20
251.431836063474
 30
0.0
 10
-148.4975240803576
 20
251.3269574982683
 30
0.0
 10
-148.5499962683591
 20
251.2050220008866
 30
0.0
 10
-148.5566287597802
 20
251.1177554532599
 30
0.0
 10
-148.5599450266549
 20
251.0741218060089
 30
0.0
 11
-148.0599640651228
 21
251.5741027675409
 31
0.0
 11
-148.189371053121
 21
251.5570665457105
 31
0.0
 11
-148.309957490884
 21
251.5071192648023
 31
0.0
 11
-148.4135062087883
 21
251.4276639496744
 31
0.0
 11
-148.4929615239162
 21
251.32411523177
 31
0.0
 11
-148.5429088048245
 21
251.203528794007
 31
0.0
 11
-148.5599450266549
 21
251.0741218060089
 31
0.0
  0
SPLINE
  5
2B6
330
1F
100
AcDbEntity
  8
0
  6
Continuous
 62
     7
100
AcDbSpline
210
0.0
220
0.0
230
1.0
 70
     8
 71
     3
 72
     9
 73
     5
 74
     3
 42
0.000000001
 43
0.0000000001
 44
0.00000001
 40
0.0
 40
0.0
 40
0.0
 40
0.0
 40
0.2085799929900433
 40
0.401331177310481
 40
0.401331177310481
 40
0.401331177310481
 40
0.401331177310481
 10
-139.212667781665
 20
249.9987210505519
 30
0.0
 10
-139.2542035706769
 20
249.9426804443255
 30
0.0
 10
-139.3341230778759
 20
249.8348520786618
 30
0.0
 10
-139.4349486449723
 20
249.7463215921102
 30
0.0
 10
-139.4833731165549
 20
249.7038022106564
 30
0.0
 11
-139.212667781665
 21
249.9987210505519
 31
0.0
 11
-139.3429220777369
 21
249.8358117747992
 31
0.0
 11
-139.4833731165549
 21
249.7038022106564
 31
0.0
  0
SPLINE
  5
2B7
330
1F
100
AcDbEntity
  8
0
  6
Continuous
 62
     7
100
AcDbSpline
210
0.0
220
0.0
230
1.0
 70
     8
 71
     3
 72
    13
 73
     9
 74
     7
 42
0.000000001
 43
0.0000000001
 44
0.00000001
 40
0.0
 40
0.0
 40
0.0
 40
0.0
 40
0.1305235646074273
 40
0.2610449007712866
 40
0.3915649509834283
 40
0.522085001195582
 40
0.652606337359367
 40
0.7831299019665243
 40
0.7831299019665243
 40
0.7831299019665243
 40
0.7831299019665243
 10
-148.6803758021673
 20
249.1536529535612
 30
0.0
 10
-148.6770595352926
 20
249.11001930631
 30
0.0
 10
-148.6704270438715
 20
249.0227527586834
 30
0.0
 10
-148.61795485587
 20
248.9008172613014
 30
0.0
 10
-148.5381090981004
 20
248.7959386960957
 30
0.0
 10
-148.4332305328947
 20
248.7160929383261
 30
0.0
 10
-148.3112950355128
 20
248.6636207503245
 30
0.0
 10
-148.2240284878864
 20
248.6569882589038
 30
0.0
 10
-148.1803948406352
 20
248.6536719920291
 30
0.0
 11
-148.6803758021673
 21
249.1536529535612
 31
0.0
 11
-148.6633395803369
 21
249.0242459655628
 31
0.0
 11
-148.6133922994286
 21
248.9036595277997
 31
0.0
 11
-148.5339369843007
 21
248.8001108098953
 31
0.0
 11
-148.4303882663964
 21
248.7206554947674
 31
0.0
 11
-148.3098018286334
 21
248.6707082138592
 31
0.0
 11
-148.1803948406352
 21
248.6536719920291
 31
0.0
  0
SPLINE
  5
2B8
330
1F
100
AcDbEntity
  8
0
  6
Continuous
 62
     7
100
AcDbSpline
210
0.0
220
0.0
230
1.0
 70
     8
 71
     3
 72
    13
 73
     9
 74
     7
 42
0.000000001
 43
0.0000000001
 44
0.00000001
 40
0.0
 40
0.0
 40
0.0
 40
0.0
 40
0.1305235646072018
 40
0.2610449007709977
 40
0.3915649509831342
 40
0.5220850011952533
 40
0.6526063373590755
 40
0.7831299019662098
 40
0.7831299019662098
 40
0.7831299019662098
 40
0.7831299019662098
 10
-148.5599450266549
 20
249.2740837290733
 30
0.0
 10
-148.5566287597802
 20
249.2304500818223
 30
0.0
 10
-148.549996268359
 20
249.1431835341955
 30
0.0
 10
-148.4975240803576
 20
249.0212480368139
 30
0.0
 10
-148.417678322588
 20
248.9163694716081
 30
0.0
 10
-148.3127997573822
 20
248.8365237138385
 30
0.0
 10
-148.1908642600005
 20
248.7840515258372
 30
0.0
 10
-148.1035977123739
 20
248.7774190344161
 30
0.0
 10
-148.0599640651228
 20
248.7741027675413
 30
0.0
 11
-148.5599450266549
 21
249.2740837290733
 31
0.0
 11
-148.5429088048245
 21
249.1446767410751
 31
0.0
 11
-148.4929615239162
 21
249.0240903033121
 31
0.0
 11
-148.4135062087883
 21
248.9205415854078
 31
0.0
 11
-148.309957490884
 21
248.8410862702799
 31
0.0
 11
-148.1893710531209
 21
248.7911389893717
 31
0.0
 11
-148.0599640651228
 21
248.7741027675413
 31
0.0
  0
SPLINE
  5
2B9
330
1F
100
AcDbEntity
  8
0
  6
Continuous
 62
     7
100
AcDbSpline
210
0.0
220
0.0
230
1.0
 70
     8
 71
     3
 72
    13
 73
     9
 74
     7
 42
0.000000001
 43
0.0000000001
 44
0.00000001
 40
0.0
 40
0.0
 40
0.0
 40
0.0
 40
0.2088377044729823
 40
0.4176718438257141
 40
0.6265039254852487
 40
0.8353360071447209
 40
1.044170146497416
 40
1.253007850970366
 40
1.253007850970366
 40
1.253007850970366
 40
1.253007850970366
 10
-137.9895447126908
 20
239.6536719920288
 30
0.0
 10
-138.0593585486608
 20
239.6483659650013
 30
0.0
 10
-138.1989850268779
 20
239.6377539872359
 30
0.0
 10
-138.3940818233463
 20
239.5537984823465
 30
0.0
 10
-138.5618875291379
 20
239.4260452700246
 30
0.0
 10
-138.6896407414598
 20
239.2582395642329
 30
0.0
 10
-138.7735962463493
 20
239.0631427677646
 30
0.0
 10
-138.7842082241146
 20
238.9235162895475
 30
0.0
 10
-138.7895142511421
 20
238.8537024535775
 30
0.0
 11
-137.9895447126908
 21
239.6536719920288
 31
0.0
 11
-138.1965958934878
 21
239.6264140371001
 31
0.0
 11
-138.3895341939087
 21
239.5464983876469
 31
0.0
 11
-138.5552121425557
 21
239.4193698834423
 31
0.0
 11
-138.6823406467603
 21
239.2536919347954
 31
0.0
 11
-138.7622562962135
 21
239.0607536343745
 31
0.0
 11
-138.7895142511421
 21
238.8537024535775
 31
0.0
  0
SPLINE
  5
2BA
330
1F
100
AcDbEntity
  8
0
  6
Continuous
 62
     7
100
AcDbSpline
210
0.0
220
0.0
230
1.0
 70
     8
 71
     3
 72
    13
 73
     9
 74
     7
 42
0.000000001
 43
0.0000000001
 44
0.00000001
 40
0.0
 40
0.0
 40
0.0
 40
0.0
 40
0.2088377044729579
 40
0.4176718438256679
 40
0.6265039254851453
 40
0.8353360071446626
 40
1.044170146497368
 40
1.253007850970281
 40
1.253007850970281
 40
1.253007850970281
 40
1.253007850970281
 10
-137.6895447126942
 20
230.2536719920284
 30
0.0
 10
-137.7593585486642
 20
230.2483659650009
 30
0.0
 10
-137.8989850268813
 20
230.2377539872356
 30
0.0
 10
-138.0940818233497
 20
230.1537984823461
 30
0.0
 10
-138.2618875291413
 20
230.0260452700242
 30
0.0
 10
-138.3896407414632
 20
229.8582395642326
 30
0.0
 10
-138.4735962463527
 20
229.6631427677642
 30
0.0
 10
-138.484208224118
 20
229.523516289547
 30
0.0
 10
-138.4895142511456
 20
229.4537024535772
 30
0.0
 11
-137.6895447126942
 21
230.2536719920284
 31
0.0
 11
-137.8965958934912
 21
230.2264140370997
 31
0.0
 11
-138.0895341939121
 21
230.1464983876465
 31
0.0
 11
-138.255212142559
 21
230.019369883442
 31
0.0
 11
-138.3823406467636
 21
229.853691934795
 31
0.0
 11
-138.4622562962169
 21
229.6607536343741
 31
0.0
 11
-138.4895142511456
 21
229.4537024535772
 31
0.0
  0
SPLINE
  5
2BB
330
1F
100
AcDbEntity
  8
0
  6
Continuous
 62
     7
100
AcDbSpline
210
0.0
220
0.0
230
1.0
 70
     8
 71
     3
 72
    13
 73
     9
 74
     7
 42
0.000000001
 43
0.0000000001
 44
0.00000001
 40
0.0
 40
0.0
 40
0.0
 40
0.0
 40
0.1305235646071699
 40
0.261044900771003
 40
0.3915649509831446
 40
0.5220850011952983
 40
0.6526063373591097
 40
0.7831299019662759
 40
0.7831299019662759
 40
0.7831299019662759
 40
0.7831299019662759
 10
-136.4395142511428
 20
237.1945525815216
 30
0.0
 10
-136.4428305180176
 20
237.2381862287727
 30
0.0
 10
-136.4494630094386
 20
237.3254527763993
 30
0.0
 10
-136.5019351974401
 20
237.447388273781
 30
0.0
 10
-136.5817809552097
 20
237.5522668389869
 30
0.0
 10
-136.6866595204154
 20
237.6321125967565
 30
0.0
 10
-136.8085950177972
 20
237.6845847847579
 30
0.0
 10
-136.8958615654238
 20
237.6912172761789
 30
0.0
 10
-136.9394952126749
 20
237.6945335430537
 30
0.0
 11
-136.4395142511428
 21
237.1945525815216
 31
0.0
 11
-136.4565504729732
 21
237.3239595695198
 31
0.0
 11
-136.5064977538815
 21
237.4445460072828
 31
0.0
 11
-136.5859530690093
 21
237.5480947251872
 31
0.0
 11
-136.6895017869137
 21
237.6275500403151
 31
0.0
 11
-136.8100882246767
 21
237.6774973212233
 31
0.0
 11
-136.9394952126749
 21
237.6945335430537
 31
0.0
  0
SPLINE
  5
2BC
330
1F
100
AcDbEntity
  8
0
  6
Continuous
 62
     7
100
AcDbSpline
210
0.0
220
0.0
230
1.0
 70
     8
 71
     3
 72
     9
 73
     5
 74
     3
 42
0.000000001
 43
0.0000000001
 44
0.00000001
 40
0.0
 40
0.0
 40
0.0
 40
0.0
 40
0.4287058800446212
 40
0.754104846796569
 40
0.754104846796569
 40
0.754104846796569
 40
0.754104846796569
 10
-140.8023434380009
 20
237.3926153872249
 30
0.0
 10
-140.8255388038009
 20
237.2438699843099
 30
0.0
 10
-140.8663400752375
 20
236.9822229419031
 30
0.0
 10
-141.0806489701169
 20
236.833082426044
 30
0.0
 10
-141.1731240388278
 20
236.7687277601108
 30
0.0
 11
-140.8023434380009
 21
237.3926153872249
 31
0.0
 11
-140.9280051523648
 21
236.9827399580038
 31
0.0
 11
-141.1731240388278
 21
236.7687277601108
 31
0.0
  0
SPLINE
  5
2BD
330
1F
100
AcDbEntity
  8
0
  6
Continuous
 62
     7
100
AcDbSpline
210
0.0
220
0.0
230
1.0
 70
     8
 71
     3
 72
    10
 73
     6
 74
     4
 42
0.000000001
 43
0.0000000001
 44
0.00000001
 40
0.0
 40
0.0
 40
0.0
 40
0.0
 40
0.1664217218580568
 40
0.4119154029285126
 40
0.6408229549739652
 40
0.6408229549739652
 40
0.6408229549739652
 40
0.6408229549739652
 10
-141.1730823392059
 20
238.8098954342997
 30
0.0
 10
-141.1224914245542
 20
238.7848769751839
 30
0.0
 10
-140.9972723395121
 20
238.7229530216945
 30
0.0
 10
-140.8920300639613
 20
238.5206783735961
 30
0.0
 10
-140.8657007241324
 20
238.3655095524906
 30
0.0
 10
-140.8529963270261
 20
238.2906376658956
 30
0.0
 11
-141.1730823392059
 21
238.8098954342997
 31
0.0
 11
-141.0307068751169
 21
238.7237245714354
 31
0.0
 11
-140.9031189609152
 21
238.5139902774496
 31
0.0
 11
-140.8529963270261
 21
238.2906376658956
 31
0.0
  0
SPLINE
  5
2BE
330
1F
100
AcDbEntity
  8
0
  6
Continuous
 62
     7
100
AcDbSpline
210
0.0
220
0.0
230
1.0
 70
     8
 71
     3
 72
     9
 73
     5
 74
     3
 42
0.000000001
 43
0.0000000001
 44
0.00000001
 40
0.0
 40
0.0
 40
0.0
 40
0.0
 40
0.2344639073095711
 40
0.5448186822795802
 40
0.5448186822795802
 40
0.5448186822795802
 40
0.5448186822795802
 10
-141.0051298745358
 20
237.8856055980228
 30
0.0
 10
-140.9526732693195
 20
237.8253192207107
 30
0.0
 10
-140.8307810133805
 20
237.6852330665042
 30
0.0
 10
-140.8126638373633
 20
237.4988105635203
 30
0.0
 10
-140.8023434380009
 20
237.3926153872249
 30
0.0
 11
-141.0051298745358
 21
237.8856055980228
 31
0.0
 11
-140.8669795201459
 21
237.6961648305228
 31
0.0
 11
-140.8023434380009
 21
237.3926153872249
 31
0.0
  0
SPLINE
  5
2BF
330
1F
100
AcDbEntity
  8
0
  6
Continuous
 62
     7
100
AcDbSpline
210
0.0
220
0.0
230
1.0
 70
     8
 71
     3
 72
     9
 73
     5
 74
     3
 42
0.000000001
 43
0.0000000001
 44
0.00000001
 40
0.0
 40
0.0
 40
0.0
 40
0.0
 40
0.2060628911531747
 40
0.4917300885225176
 40
0.4917300885225176
 40
0.4917300885225176
 40
0.4917300885225176
 10
-141.1725142419619
 20
236.9714707485198
 30
0.0
 10
-141.1162520071883
 20
237.014904341668
 30
0.0
 10
-140.9819928472255
 20
237.1185504039069
 30
0.0
 10
-140.9590042730699
 20
237.2892857163867
 30
0.0
 10
-140.9456492297381
 20
237.3884732213614
 30
0.0
 11
-141.1725142419619
 21
236.9714707485198
 31
0.0
 11
-141.023267623538
 21
237.1135529891004
 31
0.0
 11
-140.9456492297381
 21
237.3884732213614
 31
0.0
  0
SPLINE
  5
2C0
330
1F
100
AcDbEntity
  8
0
  6
Continuous
 62
     7
100
AcDbSpline
210
0.0
220
0.0
230
1.0
 70
     8
 71
     3
 72
     9
 73
     5
 74
     3
 42
0.000000001
 43
0.0000000001
 44
0.00000001
 40
0.0
 40
0.0
 40
0.0
 40
0.0
 40
0.2676849599677302
 40
0.4614899318539978
 40
0.4614899318539978
 40
0.4614899318539978
 40
0.4614899318539978
 10
-140.9456492297381
 20
237.3884732213614
 30
0.0
 10
-140.9572580747926
 20
237.4818902332472
 30
0.0
 10
-140.9772717867454
 20
237.6429415236245
 30
0.0
 10
-141.1055479236167
 20
237.7379416792254
 30
0.0
 10
-141.1594181257147
 20
237.7778374574695
 30
0.0
 11
-140.9456492297381
 21
237.3884732213614
 31
0.0
 11
-141.0169009162599
 21
237.6465011974259
 31
0.0
 11
-141.1594181257147
 21
237.7778374574695
 31
0.0
  0
SPLINE
  5
2C1
330
1F
100
AcDbEntity
  8
0
  6
Continuous
 62
     7
100
AcDbSpline
210
0.0
220
0.0
230
1.0
 70
     8
 71
     3
 72
    13
 73
     9
 74
     7
 42
0.000000001
 43
0.0000000001
 44
0.00000001
 40
0.0
 40
0.0
 40
0.0
 40
0.0
 40
0.2088377044729861
 40
0.4176718438256916
 40
0.6265039254851984
 40
0.8353360071446931
 40
1.044170146497436
 40
1.253007850970418
 40
1.253007850970418
 40
1.253007850970418
 40
1.253007850970418
 10
-138.1099754882034
 20
239.7741027675413
 30
0.0
 10
-138.1797893241734
 20
239.7687967405137
 30
0.0
 10
-138.3194158023905
 20
239.7581847627485
 30
0.0
 10
-138.5145125988589
 20
239.6742292578589
 30
0.0
 10
-138.6823183046505
 20
239.546476045537
 30
0.0
 10
-138.8100715169723
 20
239.3786703397454
 30
0.0
 10
-138.8940270218619
 20
239.1835735432771
 30
0.0
 10
-138.9046389996271
 20
239.0439470650598
 30
0.0
 10
-138.9099450266547
 20
238.9741332290899
 30
0.0
 11
-138.1099754882034
 21
239.7741027675413
 31
0.0
 11
-138.3170266690004
 21
239.7468448126126
 31
0.0
 11
-138.5099649694213
 21
239.6669291631594
 31
0.0
 11
-138.6756429180682
 21
239.5398006589548
 31
0.0
 11
-138.8027714222728
 21
239.3741227103078
 31
0.0
 11
-138.8826870717261
 21
239.1811844098869
 31
0.0
 11
-138.9099450266547
 21
238.9741332290899
 31
0.0
  0
SPLINE
  5
2C2
330
1F
100
AcDbEntity
  8
0
  6
Continuous
 62
     7
100
AcDbSpline
210
0.0
220
0.0
230
1.0
 70
     8
 71
     3
 72
    13
 73
     9
 74
     7
 42
0.000000001
 43
0.0000000001
 44
0.00000001
 40
0.0
 40
0.0
 40
0.0
 40
0.0
 40
0.4698848373589951
 40
0.9397616540080063
 40
1.409633840492099
 40
1.879506026976142
 40
2.349382843625159
 40
2.819267680984215
 40
2.819267680984215
 40
2.819267680984215
 40
2.819267680984215
 10
-140.2894457126613
 20
226.7536719920284
 30
0.0
 10
-140.1323645809617
 20
226.7656105528987
 30
0.0
 10
-139.818205000776
 20
226.7894874851443
 30
0.0
 10
-139.3792372073524
 20
226.9783873796607
 30
0.0
 10
-139.0016743662745
 20
227.265832107157
 30
0.0
 10
-138.7142296387781
 20
227.6433949482349
 30
0.0
 10
-138.5253297442617
 20
228.0823627416586
 30
0.0
 10
-138.501452812016
 20
228.3965223218442
 30
0.0
 10
-138.4895142511457
 20
228.5536034535438
 30
0.0
 11
-140.2894457126613
 21
226.7536719920284
 31
0.0
 11
-139.823580555868
 21
226.8150023906179
 31
0.0
 11
-139.3894693799211
 21
226.9948126018876
 31
0.0
 11
-139.0166939954654
 21
227.2808517363479
 31
0.0
 11
-138.730654861005
 21
227.6536271208035
 31
0.0
 11
-138.5508446497352
 21
228.0877382967504
 31
0.0
 11
-138.4895142511457
 21
228.5536034535438
 31
0.0
  0
SPLINE
  5
2C3
330
1F
100
AcDbEntity
  8
0
  6
Continuous
 62
     7
100
AcDbSpline
210
0.0
220
0.0
230
1.0
 70
     8
 71
     3
 72
    13
 73
     9
 74
     7
 42
0.000000001
 43
0.0000000001
 44
0.00000001
 40
0.0
 40
0.0
 40
0.0
 40
0.0
 40
0.1305235646072018
 40
0.2610449007710195
 40
0.3915649509831386
 40
0.5220850011952525
 40
0.6526063373592322
 40
0.7831299019665185
 40
0.7831299019665185
 40
0.7831299019665185
 40
0.7831299019665185
 10
-136.9394952126748
 20
239.6536719920288
 30
0.0
 10
-136.8958615654237
 20
239.6569882589035
 30
0.0
 10
-136.8085950177971
 20
239.6636207503246
 30
0.0
 10
-136.6866595204154
 20
239.7160929383262
 30
0.0
 10
-136.5817809552096
 20
239.7959386960957
 30
0.0
 10
-136.5019351974399
 20
239.9008172613014
 30
0.0
 10
-136.4494630094386
 20
240.0227527586834
 30
0.0
 10
-136.4428305180174
 20
240.1100193063101
 30
0.0
 10
-136.4395142511427
 20
240.1536529535612
 30
0.0
 11
-136.9394952126748
 21
239.6536719920288
 31
0.0
 11
-136.8100882246766
 21
239.6707082138592
 31
0.0
 11
-136.6895017869136
 21
239.7206554947675
 31
0.0
 11
-136.5859530690093
 21
239.8001108098954
 31
0.0
 11
-136.5064977538814
 21
239.9036595277997
 31
0.0
 11
-136.4565504729731
 21
240.0242459655629
 31
0.0
 11
-136.4395142511427
 21
240.1536529535612
 31
0.0
  0
SPLINE
  5
2C4
330
1F
100
AcDbEntity
  8
0
  6
Continuous
 62
     7
100
AcDbSpline
210
0.0
220
0.0
230
1.0
 70
     8
 71
     3
 72
    13
 73
     9
 74
     7
 42
0.000000001
 43
0.0000000001
 44
0.00000001
 40
0.0
 40
0.0
 40
0.0
 40
0.0
 40
0.1305235646071099
 40
0.2610449007708687
 40
0.3915649509830103
 40
0.522085001195164
 40
0.6526063373589599
 40
0.7831299019661543
 40
0.7831299019661543
 40
0.7831299019661543
 40
0.7831299019661543
 10
-137.0599259881873
 20
239.7741027675413
 30
0.0
 10
-137.0162923409362
 20
239.7774190344161
 30
0.0
 10
-136.9290257933097
 20
239.7840515258371
 30
0.0
 10
-136.807090295928
 20
239.8365237138386
 30
0.0
 10
-136.7022117307222
 20
239.9163694716081
 30
0.0
 10
-136.6223659729526
 20
240.0212480368137
 30
0.0
 10
-136.5698937849511
 20
240.1431835341956
 30
0.0
 10
-136.56326129353
 20
240.2304500818222
 30
0.0
 10
-136.5599450266553
 20
240.2740837290733
 30
0.0
 11
-137.0599259881873
 21
239.7741027675413
 31
0.0
 11
-136.9305190001892
 21
239.7911389893717
 31
0.0
 11
-136.8099325624262
 21
239.8410862702799
 31
0.0
 11
-136.7063838445218
 21
239.9205415854078
 31
0.0
 11
-136.6269285293939
 21
240.0240903033121
 31
0.0
 11
-136.5769812484857
 21
240.1446767410751
 31
0.0
 11
-136.5599450266553
 21
240.2740837290733
 31
0.0
  0
SPLINE
  5
2C5
330
1F
100
AcDbEntity
  8
0
  6
Continuous
 62
     7
100
AcDbSpline
210
0.0
220
0.0
230
1.0
 70
     8
 71
     3
 72
    13
 73
     9
 74
     7
 42
0.000000001
 43
0.0000000001
 44
0.00000001
 40
0.0
 40
0.0
 40
0.0
 40
0.0
 40
0.130523564607138
 40
0.2610449007709865
 40
0.3915649509831056
 40
0.5220850011952525
 40
0.6526063373590331
 40
0.7831299019661786
 40
0.7831299019661786
 40
0.7831299019661786
 40
0.7831299019661786
 10
-137.0599259881877
 20
230.3741027675409
 30
0.0
 10
-137.0162923409366
 20
230.3774190344156
 30
0.0
 10
-136.92902579331
 20
230.3840515258368
 30
0.0
 10
-136.8070902959282
 20
230.4365237138381
 30
0.0
 10
-136.7022117307225
 20
230.5163694716077
 30
0.0
 10
-136.622365972953
 20
230.6212480368135
 30
0.0
 10
-136.5698937849515
 20
230.7431835341953
 30
0.0
 10
-136.5632612935304
 20
230.8304500818219
 30
0.0
 10
-136.5599450266556
 20
230.8740837290729
 30
0.0
 11
-137.0599259881877
 21
230.3741027675409
 31
0.0
 11
-136.9305190001896
 21
230.3911389893713
 31
0.0
 11
-136.8099325624265
 21
230.4410862702795
 31
0.0
 11
-136.7063838445222
 21
230.5205415854074
 31
0.0
 11
-136.6269285293943
 21
230.6240903033118
 31
0.0
 11
-136.576981248486
 21
230.7446767410748
 31
0.0
 11
-136.5599450266556
 21
230.8740837290729
 31
0.0
  0
SPLINE
  5
2C6
330
1F
100
AcDbEntity
  8
0
  6
Continuous
 62
     7
100
AcDbSpline
210
0.0
220
0.0
230
1.0
 70
     8
 71
     3
 72
    13
 73
     9
 74
     7
 42
0.000000001
 43
0.0000000001
 44
0.00000001
 40
0.0
 40
0.0
 40
0.0
 40
0.0
 40
0.130523564607138
 40
0.2610449007708923
 40
0.3915649509830911
 40
0.5220850011952275
 40
0.6526063373590343
 40
0.7831299019662361
 40
0.7831299019662361
 40
0.7831299019662361
 40
0.7831299019662361
 10
-136.9394952126751
 20
230.2536719920284
 30
0.0
 10
-136.895861565424
 20
230.2569882589031
 30
0.0
 10
-136.8085950177974
 20
230.2636207503241
 30
0.0
 10
-136.6866595204157
 20
230.3160929383258
 30
0.0
 10
-136.5817809552099
 20
230.3959386960952
 30
0.0
 10
-136.5019351974404
 20
230.500817261301
 30
0.0
 10
-136.4494630094389
 20
230.6227527586829
 30
0.0
 10
-136.4428305180178
 20
230.7100193063094
 30
0.0
 10
-136.439514251143
 20
230.7536529535605
 30
0.0
 11
-136.9394952126751
 21
230.2536719920284
 31
0.0
 11
-136.810088224677
 21
230.2707082138588
 31
0.0
 11
-136.689501786914
 21
230.320655494767
 31
0.0
 11
-136.5859530690096
 21
230.400110809895
 31
0.0
 11
-136.5064977538817
 21
230.5036595277993
 31
0.0
 11
-136.4565504729734
 21
230.6242459655623
 31
0.0
 11
-136.439514251143
 21
230.7536529535605
 31
0.0
  0
SPLINE
  5
2C7
330
1F
100
AcDbEntity
  8
0
  6
Continuous
 62
     7
100
AcDbSpline
210
0.0
220
0.0
230
1.0
 70
     8
 71
     3
 72
    13
 73
     9
 74
     7
 42
0.000000001
 43
0.0000000001
 44
0.00000001
 40
0.0
 40
0.0
 40
0.0
 40
0.0
 40
0.2088377044729861
 40
0.4176718438256916
 40
0.6265039254851811
 40
0.8353360071446758
 40
1.044170146497329
 40
1.253007850970315
 40
1.253007850970315
 40
1.253007850970315
 40
1.253007850970315
 10
-137.8099754882068
 20
230.3741027675409
 30
0.0
 10
-137.8797893241768
 20
230.3687967405134
 30
0.0
 10
-138.0194158023939
 20
230.3581847627481
 30
0.0
 10
-138.2145125988623
 20
230.2742292578586
 30
0.0
 10
-138.3823183046538
 20
230.1464760455366
 30
0.0
 10
-138.5100715169757
 20
229.978670339745
 30
0.0
 10
-138.5940270218653
 20
229.7835735432767
 30
0.0
 10
-138.6046389996305
 20
229.6439470650596
 30
0.0
 10
-138.6099450266581
 20
229.5741332290896
 30
0.0
 11
-137.8099754882068
 21
230.3741027675409
 31
0.0
 11
-138.0170266690038
 21
230.3468448126122
 31
0.0
 11
-138.2099649694247
 21
230.266929163159
 31
0.0
 11
-138.3756429180716
 21
230.1398006589544
 31
0.0
 11
-138.5027714222762
 21
229.9741227103074
 31
0.0
 11
-138.5826870717294
 21
229.7811844098866
 31
0.0
 11
-138.6099450266581
 21
229.5741332290896
 31
0.0
  0
SPLINE
  5
2C8
330
1F
100
AcDbEntity
  8
0
  6
Continuous
 62
     7
100
AcDbSpline
210
0.0
220
0.0
230
1.0
 70
     8
 71
     3
 72
    13
 73
     9
 74
     7
 42
0.000000001
 43
0.0000000001
 44
0.00000001
 40
0.0
 40
0.0
 40
0.0
 40
0.0
 40
0.1305235646071343
 40
0.2610449007709411
 40
0.3915649509831226
 40
0.5220850011952642
 40
0.6526063373590448
 40
0.7831299019661584
 40
0.7831299019661584
 40
0.7831299019661584
 40
0.7831299019661584
 10
-136.5599450266554
 20
237.0741218060092
 30
0.0
 10
-136.5632612935301
 20
237.1177554532603
 30
0.0
 10
-136.5698937849511
 20
237.2050220008868
 30
0.0
 10
-136.6223659729527
 20
237.3269574982687
 30
0.0
 10
-136.7022117307222
 20
237.4318360634744
 30
0.0
 10
-136.807090295928
 20
237.5116818212439
 30
0.0
 10
-136.9290257933098
 20
237.5641540092454
 30
0.0
 10
-137.0162923409363
 20
237.5707865006666
 30
0.0
 10
-137.0599259881874
 20
237.5741027675413
 30
0.0
 11
-136.5599450266554
 21
237.0741218060092
 31
0.0
 11
-136.5769812484858
 21
237.2035287940073
 31
0.0
 11
-136.626928529394
 21
237.3241152317703
 31
0.0
 11
-136.7063838445219
 21
237.4276639496748
 31
0.0
 11
-136.8099325624263
 21
237.5071192648026
 31
0.0
 11
-136.9305190001893
 21
237.5570665457109
 31
0.0
 11
-137.0599259881874
 21
237.5741027675413
 31
0.0
  0
SPLINE
  5
2C9
330
1F
100
AcDbEntity
  8
0
  6
Continuous
 62
     7
100
AcDbSpline
210
0.0
220
0.0
230
1.0
 70
     8
 71
     3
 72
    13
 73
     9
 74
     7
 42
0.000000001
 43
0.0000000001
 44
0.00000001
 40
0.0
 40
0.0
 40
0.0
 40
0.0
 40
0.2088377044729297
 40
0.4176718438256352
 40
0.626503925485175
 40
0.8353360071446818
 40
1.044170146497403
 40
1.253007850970353
 40
1.253007850970353
 40
1.253007850970353
 40
1.253007850970353
 10
-138.9099450266547
 20
238.3740723059926
 30
0.0
 10
-138.9046389996272
 20
238.3042584700227
 30
0.0
 10
-138.8940270218619
 20
238.1646319918055
 30
0.0
 10
-138.8100715169723
 20
237.9695351953372
 30
0.0
 10
-138.6823183046504
 20
237.8017294895455
 30
0.0
 10
-138.5145125988589
 20
237.6739762772235
 30
0.0
 10
-138.3194158023905
 20
237.5900207723341
 30
0.0
 10
-138.1797893241733
 20
237.5794087945688
 30
0.0
 10
-138.1099754882034
 20
237.5741027675413
 30
0.0
 11
-138.9099450266547
 21
238.3740723059926
 31
0.0
 11
-138.882687071726
 21
238.1670211251956
 31
0.0
 11
-138.8027714222728
 21
237.9740828247748
 31
0.0
 11
-138.6756429180682
 21
237.8084048761278
 31
0.0
 11
-138.5099649694213
 21
237.6812763719231
 31
0.0
 11
-138.3170266690004
 21
237.6013607224699
 31
0.0
 11
-138.1099754882034
 21
237.5741027675413
 31
0.0
  0
SPLINE
  5
2CA
330
1F
100
AcDbEntity
  8
0
  6
Continuous
 62
     7
100
AcDbSpline
210
0.0
220
0.0
230
1.0
 70
     8
 71
     3
 72
    13
 73
     9
 74
     7
 42
0.000000001
 43
0.0000000001
 44
0.00000001
 40
0.0
 40
0.0
 40
0.0
 40
0.0
 40
0.2088377044729786
 40
0.4176718438256732
 40
0.6265039254851853
 40
0.8353360071447147
 40
1.044170146497436
 40
1.253007850970425
 40
1.253007850970425
 40
1.253007850970425
 40
1.253007850970425
 10
-138.7895142511421
 20
238.4945030815051
 30
0.0
 10
-138.7842082241146
 20
238.4246892455351
 30
0.0
 10
-138.7735962463493
 20
238.285062767318
 30
0.0
 10
-138.6896407414598
 20
238.0899659708496
 30
0.0
 10
-138.5618875291379
 20
237.922160265058
 30
0.0
 10
-138.3940818233463
 20
237.794407052736
 30
0.0
 10
-138.1989850268779
 20
237.7104515478466
 30
0.0
 10
-138.0593585486607
 20
237.6998395700812
 30
0.0
 10
-137.9895447126908
 20
237.6945335430537
 30
0.0
 11
-138.7895142511421
 21
238.4945030815051
 31
0.0
 11
-138.7622562962135
 21
238.287451900708
 31
0.0
 11
-138.6823406467603
 21
238.0945136002872
 31
0.0
 11
-138.5552121425557
 21
237.9288356516402
 31
0.0
 11
-138.3895341939087
 21
237.8017071474356
 31
0.0
 11
-138.1965958934878
 21
237.7217914979824
 31
0.0
 11
-137.9895447126908
 21
237.6945335430537
 31
0.0
  0
SPLINE
  5
2CB
330
1F
100
AcDbEntity
  8
0
  6
Continuous
 62
     7
100
AcDbSpline
210
0.0
220
0.0
230
1.0
 70
     8
 71
     3
 72
     9
 73
     5
 74
     3
 42
0.000000001
 43
0.0000000001
 44
0.00000001
 40
0.0
 40
0.0
 40
0.0
 40
0.0
 40
0.2327830053277432
 40
0.4383173162774669
 40
0.4383173162774669
 40
0.4383173162774669
 40
0.4383173162774669
 10
-140.8529963270261
 20
238.2906376658956
 30
0.0
 10
-140.8628746050382
 20
238.2123328811519
 30
0.0
 10
-140.8814748660952
 20
238.0648893780934
 30
0.0
 10
-140.9656559499558
 20
237.9428376758019
 30
0.0
 10
-141.0051298745358
 20
237.8856055980228
 30
0.0
 11
-140.8529963270261
 21
238.2906376658956
 31
0.0
 11
-140.9011282078206
 21
238.0628850580783
 31
0.0
 11
-141.0051298745358
 21
237.8856055980228
 31
0.0
  0
SPLINE
  5
2CC
330
1F
100
AcDbEntity
  8
0
  6
Continuous
 62
     7
100
AcDbSpline
210
0.0
220
0.0
230
1.0
 70
     8
 71
     3
 72
     9
 73
     5
 74
     3
 42
0.000000001
 43
0.0000000001
 44
0.00000001
 40
0.0
 40
0.0
 40
0.0
 40
0.0
 40
0.2157013040990874
 40
0.3751478277199922
 40
0.3751478277199922
 40
0.3751478277199922
 40
0.3751478277199922
 10
-140.9917014590157
 20
238.2956280454446
 30
0.0
 10
-141.0018032542856
 20
238.3708892217169
 30
0.0
 10
-141.0193723191186
 20
238.5017834927668
 30
0.0
 10
-141.1255224934654
 20
238.5767887091636
 30
0.0
 10
-141.1706387843899
 20
238.6086676593845
 30
0.0
 11
-140.9917014590157
 21
238.2956280454446
 31
0.0
 11
-141.0512916236248
 21
238.5029347411308
 31
0.0
 11
-141.1706387843899
 21
238.6086676593845
 31
0.0
  0
SPLINE
  5
2CD
330
1F
100
AcDbEntity
  8
0
  6
Continuous
 62
     7
100
AcDbSpline
210
0.0
220
0.0
230
1.0
 70
     8
 71
     3
 72
     9
 73
     5
 74
     3
 42
0.000000001
 43
0.0000000001
 44
0.00000001
 40
0.0
 40
0.0
 40
0.0
 40
0.0
 40
0.0432306425791473
 40
0.0989960378187271
 40
0.0989960378187271
 40
0.0989960378187271
 40
0.0989960378187271
 10
-141.1594181257147
 20
237.7778374574695
 30
0.0
 10
-141.1738328103351
 20
237.7762560814044
 30
0.0
 10
-141.2068417227068
 20
237.7726347885206
 30
0.0
 10
-141.2370153437386
 20
237.7585928111471
 30
0.0
 10
-141.2540124236466
 20
237.7506828229907
 30
0.0
 11
-141.1594181257147
 21
237.7778374574695
 31
0.0
 11
-141.2021214923414
 21
237.7711061105853
 31
0.0
 11
-141.2540124236466
 21
237.7506828229907
 31
0.0
  0
SPLINE
  5
2CE
330
1F
100
AcDbEntity
  8
0
  6
Continuous
 62
     7
100
AcDbSpline
210
0.0
220
0.0
230
1.0
 70
     8
 71
     3
 72
     9
 73
     5
 74
     3
 42
0.000000001
 43
0.0000000001
 44
0.00000001
 40
0.0
 40
0.0
 40
0.0
 40
0.0
 40
0.1778270393360608
 40
0.4215187421896263
 40
0.4215187421896263
 40
0.4215187421896263
 40
0.4215187421896263
 10
-141.2167899162318
 20
237.9624620730965
 30
0.0
 10
-141.1623991608519
 20
237.9922429428304
 30
0.0
 10
-141.0334720829908
 20
238.0628351167559
 30
0.0
 10
-141.0070036098788
 20
238.2103472024342
 30
0.0
 10
-140.9917014590157
 20
238.2956280454446
 30
0.0
 11
-141.2167899162318
 21
237.9624620730965
 31
0.0
 11
-141.0718528411372
 21
238.0654945983643
 31
0.0
 11
-140.9917014590157
 21
238.2956280454446
 31
0.0
  0
SPLINE
  5
2CF
330
1F
100
AcDbEntity
  8
0
  6
Continuous
 62
     7
100
AcDbSpline
210
0.0
220
0.0
230
1.0
 70
     8
 71
     3
 72
     9
 73
     5
 74
     3
 42
0.000000001
 43
0.0000000001
 44
0.00000001
 40
0.0
 40
0.0
 40
0.0
 40
0.0
 40
0.0124076373235867
 40
0.0215856815980288
 40
0.0215856815980288
 40
0.0215856815980288
 40
0.0215856815980288
 10
-141.2381221135551
 20
237.9655750289833
 30
0.0
 10
-141.2340759991156
 20
237.9646803157122
 30
0.0
 10
-141.2270369331994
 20
237.9631237949084
 30
0.0
 10
-141.2198470100106
 20
237.9626594850012
 30
0.0
 10
-141.2167899162318
 20
237.9624620730965
 30
0.0
 11
-141.2381221135551
 21
237.9655750289833
 31
0.0
 11
-141.2259339239914
 21
237.9632517744153
 31
0.0
 11
-141.2167899162318
 21
237.9624620730965
 31
0.0
  0
SPLINE
  5
2D0
330
1F
100
AcDbEntity
  8
0
  6
Continuous
 62
     7
100
AcDbSpline
210
0.0
220
0.0
230
1.0
 70
     8
 71
     3
 72
     9
 73
     5
 74
     3
 42
0.000000001
 43
0.0000000001
 44
0.00000001
 40
0.0
 40
0.0
 40
0.0
 40
0.0
 40
0.1664146621053913
 40
0.4263328389532853
 40
0.4263328389532853
 40
0.4263328389532853
 40
0.4263328389532853
 10
-141.1706387843899
 20
238.6086676593845
 30
0.0
 10
-141.2164032821791
 20
238.5742984287765
 30
0.0
 10
-141.3336459913751
 20
238.4862488919074
 30
0.0
 10
-141.3561658198519
 20
238.3382275645732
 30
0.0
 10
-141.3698952531897
 20
238.2479848423892
 30
0.0
 11
-141.1706387843899
 21
238.6086676593845
 31
0.0
 11
-141.2934998102308
 21
238.4964223522746
 31
0.0
 11
-141.3698952531897
 21
238.2479848423892
 31
0.0
  0
SPLINE
  5
2D1
330
1F
100
AcDbEntity
  8
0
  6
Continuous
 62
     7
100
AcDbSpline
210
0.0
220
0.0
230
1.0
 70
     8
 71
     3
 72
     9
 73
     5
 74
     3
 42
0.000000001
 43
0.0000000001
 44
0.00000001
 40
0.0
 40
0.0
 40
0.0
 40
0.0
 40
0.2880218424043443
 40
0.4632153590346465
 40
0.4632153590346465
 40
0.4632153590346465
 40
0.4632153590346465
 10
-141.386269383122
 20
237.3654081347424
 30
0.0
 10
-141.3711125309421
 20
237.2653737264693
 30
0.0
 10
-141.3467362834328
 20
237.104491929382
 30
0.0
 10
-141.2203246278689
 20
237.007974699082
 30
0.0
 10
-141.1725142419619
 20
236.9714707485198
 30
0.0
 11
-141.386269383122
 21
237.3654081347424
 31
0.0
 11
-141.3013498268187
 21
237.090189581299
 31
0.0
 11
-141.1725142419619
 21
236.9714707485198
 31
0.0
  0
SPLINE
  5
2D2
330
1F
100
AcDbEntity
  8
0
  6
Continuous
 62
     7
100
AcDbSpline
210
0.0
220
0.0
230
1.0
 70
     8
 71
     3
 72
     9
 73
     5
 74
     3
 42
0.000000001
 43
0.0000000001
 44
0.00000001
 40
0.0
 40
0.0
 40
0.0
 40
0.0
 40
0.3733669548543255
 40
0.6367738187537197
 40
0.6367738187537197
 40
0.6367738187537197
 40
0.6367738187537197
 10
-141.503908026655
 20
238.2925954347806
 30
0.0
 10
-141.4778257981929
 20
238.4210743135278
 30
0.0
 10
-141.4333427871277
 20
238.6401938193503
 30
0.0
 10
-141.2492385968236
 20
238.7602381073044
 30
0.0
 10
-141.1730823392059
 20
238.8098954342997
 30
0.0
 11
-141.503908026655
 21
238.2925954347806
 31
0.0
 11
-141.3776600676333
 21
238.643970359651
 31
0.0
 11
-141.1730823392059
 21
238.8098954342997
 31
0.0
  0
SPLINE
  5
2D3
330
1F
100
AcDbEntity
  8
0
  6
Continuous
 62
     7
100
AcDbSpline
210
0.0
220
0.0
230
1.0
 70
     8
 71
     3
 72
     9
 73
     5
 74
     3
 42
0.000000001
 43
0.0000000001
 44
0.00000001
 40
0.0
 40
0.0
 40
0.0
 40
0.0
 40
0.2923803254780138
 40
0.6885086499346535
 40
0.6885086499346535
 40
0.6885086499346535
 40
0.6885086499346535
 10
-141.1731240388278
 20
236.7687277601108
 30
0.0
 10
-141.2568050573684
 20
236.8254285992418
 30
0.0
 10
-141.4538603857535
 20
236.9589499710167
 30
0.0
 10
-141.4961692964366
 20
237.1968979535626
 30
0.0
 10
-141.5205114035293
 20
237.333799558559
 30
0.0
 11
-141.1731240388278
 21
236.7687277601108
 31
0.0
 11
-141.396261058648
 21
236.9576619462655
 31
0.0
 11
-141.5205114035293
 21
237.333799558559
 31
0.0
  0
SPLINE
  5
2D4
330
1F
100
AcDbEntity
  8
0
  6
Continuous
 62
     7
100
AcDbSpline
210
0.0
220
0.0
230
1.0
 70
     8
 71
     3
 72
    13
 73
     9
 74
     7
 42
0.000000001
 43
0.0000000001
 44
0.00000001
 40
0.0
 40
0.0
 40
0.0
 40
0.0
 40
0.1305235646072523
 40
0.2610449007710437
 40
0.3915649509831628
 40
0.5220850011954397
 40
0.6526063373590627
 40
0.7831299019660672
 40
0.7831299019660672
 40
0.7831299019660672
 40
0.7831299019660672
 10
-148.1803948406352
 20
246.6945335430542
 30
0.0
 10
-148.2240284878863
 20
246.6912172761794
 30
0.0
 10
-148.3112950355128
 20
246.6845847847581
 30
0.0
 10
-148.4332305328947
 20
246.6321125967567
 30
0.0
 10
-148.5381090981005
 20
246.5522668389871
 30
0.0
 10
-148.6179548558698
 20
246.4473882737812
 30
0.0
 10
-148.6704270438715
 20
246.3254527763996
 30
0.0
 10
-148.6770595352926
 20
246.2381862287731
 30
0.0
 10
-148.6803758021673
 20
246.1945525815221
 30
0.0
 11
-148.1803948406352
 21
246.6945335430542
 31
0.0
 11
-148.3098018286334
 21
246.6774973212236
 31
0.0
 11
-148.4303882663964
 21
246.6275500403153
 31
0.0
 11
-148.5339369843007
 21
246.5480947251874
 31
0.0
 11
-148.6133922994286
 21
246.4445460072829
 31
0.0
 11
-148.6633395803369
 21
246.3239595695201
 31
0.0
 11
-148.6803758021673
 21
246.1945525815221
 31
0.0
  0
SPLINE
  5
2D5
330
1F
100
AcDbEntity
  8
0
  6
Continuous
 62
     7
100
AcDbSpline
210
0.0
220
0.0
230
1.0
 70
     8
 71
     3
 72
    13
 73
     9
 74
     7
 42
0.000000001
 43
0.0000000001
 44
0.00000001
 40
0.0
 40
0.0
 40
0.0
 40
0.0
 40
0.2088377044729579
 40
0.4176718438256896
 40
0.6265039254852468
 40
0.8353360071448679
 40
1.044170146497595
 40
1.253007850970537
 40
1.253007850970537
 40
1.253007850970537
 40
1.253007850970537
 10
-146.6303758021673
 20
229.4537024535771
 30
0.0
 10
-146.6356818291949
 20
229.5235162895471
 30
0.0
 10
-146.6462938069601
 20
229.6631427677642
 30
0.0
 10
-146.7302493118497
 20
229.8582395642326
 30
0.0
 10
-146.8580025241716
 20
230.0260452700242
 30
0.0
 10
-147.0258082299632
 20
230.1537984823463
 30
0.0
 10
-147.2209050264316
 20
230.237753987236
 30
0.0
 10
-147.3605315046487
 20
230.248365965001
 30
0.0
 10
-147.4303453406187
 20
230.2536719920284
 30
0.0
 11
-146.6303758021673
 21
229.4537024535771
 31
0.0
 11
-146.657633757096
 21
229.6607536343741
 31
0.0
 11
-146.7375494065492
 21
229.853691934795
 31
0.0
 11
-146.8646779107538
 21
230.019369883442
 31
0.0
 11
-147.0303558594008
 21
230.1464983876468
 31
0.0
 11
-147.2232941598216
 21
230.2264140371001
 31
0.0
 11
-147.4303453406187
 21
230.2536719920284
 31
0.0
  0
SPLINE
  5
2D6
330
1F
100
AcDbEntity
  8
0
  6
Continuous
 62
     7
100
AcDbSpline
210
0.0
220
0.0
230
1.0
 70
     8
 71
     3
 72
    13
 73
     9
 74
     7
 42
0.000000001
 43
0.0000000001
 44
0.00000001
 40
0.0
 40
0.0
 40
0.0
 40
0.0
 40
0.2088377044730142
 40
0.4176718438257088
 40
0.6265039254851915
 40
0.835336007144766
 40
1.044170146497482
 40
1.253007850970461
 40
1.253007850970461
 40
1.253007850970461
 40
1.253007850970461
 10
-138.6099450266549
 20
252.3740723059923
 30
0.0
 10
-138.6046389996274
 20
252.3042584700223
 30
0.0
 10
-138.5940270218621
 20
252.1646319918051
 30
0.0
 10
-138.5100715169726
 20
251.9695351953369
 30
0.0
 10
-138.3823183046507
 20
251.8017294895451
 30
0.0
 10
-138.2145125988591
 20
251.6739762772232
 30
0.0
 10
-138.0194158023907
 20
251.5900207723336
 30
0.0
 10
-137.8797893241736
 20
251.5794087945684
 30
0.0
 10
-137.8099754882036
 20
251.5741027675409
 30
0.0
 11
-138.6099450266549
 21
252.3740723059923
 31
0.0
 11
-138.5826870717262
 21
252.1670211251952
 31
0.0
 11
-138.502771422273
 21
251.9740828247744
 31
0.0
 11
-138.3756429180685
 21
251.8084048761274
 31
0.0
 11
-138.2099649694215
 21
251.6812763719228
 31
0.0
 11
-138.0170266690006
 21
251.6013607224695
 31
0.0
 11
-137.8099754882036
 21
251.5741027675409
 31
0.0
  0
SPLINE
  5
2D7
330
1F
100
AcDbEntity
  8
0
  6
Continuous
 62
     7
100
AcDbSpline
210
0.0
220
0.0
230
1.0
 70
     8
 71
     3
 72
    13
 73
     9
 74
     7
 42
0.000000001
 43
0.0000000001
 44
0.00000001
 40
0.0
 40
0.0
 40
0.0
 40
0.0
 40
0.4698848373590366
 40
0.9397616540081375
 40
1.409633840492293
 40
1.879506026976455
 40
2.34938284362553
 40
2.819267680984581
 40
2.819267680984581
 40
2.819267680984581
 40
2.819267680984581
 10
-138.6099450266548
 20
253.2741713060251
 30
0.0
 10
-138.6218835875251
 20
253.4312524377247
 30
0.0
 10
-138.6457605197706
 20
253.7454120179104
 30
0.0
 10
-138.834660414287
 20
254.1843798113341
 30
0.0
 10
-139.1221051417834
 20
254.5619426524121
 30
0.0
 10
-139.4996679828613
 20
254.8493873799085
 30
0.0
 10
-139.938635776285
 20
255.0382872744249
 30
0.0
 10
-140.2527953564707
 20
255.0621642066706
 30
0.0
 10
-140.4098764881703
 20
255.0741027675409
 30
0.0
 11
-138.6099450266548
 21
253.2741713060251
 31
0.0
 11
-138.6712754252442
 21
253.7400364628184
 31
0.0
 11
-138.8510856365139
 21
254.1741476387654
 31
0.0
 11
-139.1371247709743
 21
254.5469230232212
 31
0.0
 11
-139.50990015543
 21
254.8329621576817
 31
0.0
 11
-139.944011331377
 21
255.0127723689514
 31
0.0
 11
-140.4098764881703
 21
255.0741027675409
 31
0.0
  0
SPLINE
  5
2D8
330
1F
100
AcDbEntity
  8
0
  6
Continuous
 62
     7
100
AcDbSpline
210
0.0
220
0.0
230
1.0
 70
     8
 71
     3
 72
    13
 73
     9
 74
     7
 42
0.000000001
 43
0.0000000001
 44
0.00000001
 40
0.0
 40
0.0
 40
0.0
 40
0.0
 40
0.4698848373590196
 40
0.9397616540080833
 40
1.409633840492222
 40
1.879506026976344
 40
2.34938284362544
 40
2.819267680984495
 40
2.819267680984495
 40
2.819267680984495
 40
2.819267680984495
 10
-138.4895142511422
 20
253.3946020815376
 30
0.0
 10
-138.5014528120125
 20
253.5516832132371
 30
0.0
 10
-138.5253297442582
 20
253.865842793423
 30
0.0
 10
-138.7142296387744
 20
254.3048105868465
 30
0.0
 10
-139.0016743662708
 20
254.6823734279246
 30
0.0
 10
-139.3792372073488
 20
254.969818155421
 30
0.0
 10
-139.8182050007724
 20
255.1587180499374
 30
0.0
 10
-140.1323645809581
 20
255.1825949821831
 30
0.0
 10
-140.2894457126577
 20
255.1945335430534
 30
0.0
 11
-138.4895142511422
 21
253.3946020815376
 31
0.0
 11
-138.5508446497317
 21
253.8604672383309
 31
0.0
 11
-138.7306548610014
 21
254.2945784142779
 31
0.0
 11
-139.0166939954617
 21
254.6673537987337
 31
0.0
 11
-139.3894693799174
 21
254.9533929331941
 31
0.0
 11
-139.8235805558644
 21
255.1332031444639
 31
0.0
 11
-140.2894457126577
 21
255.1945335430534
 31
0.0
  0
SPLINE
  5
2D9
330
1F
100
AcDbEntity
  8
0
  6
Continuous
 62
     7
100
AcDbSpline
210
0.0
220
0.0
230
1.0
 70
     8
 71
     3
 72
    13
 73
     9
 74
     7
 42
0.000000001
 43
0.0000000001
 44
0.00000001
 40
0.0
 40
0.0
 40
0.0
 40
0.0
 40
0.208837704473035
 40
0.4176718438257296
 40
0.6265039254852243
 40
0.8353360071446672
 40
1.044170146497307
 40
1.253007850970346
 40
1.253007850970346
 40
1.253007850970346
 40
1.253007850970346
 10
-138.4895142511423
 20
252.4945030815048
 30
0.0
 10
-138.4842082241148
 20
252.4246892455348
 30
0.0
 10
-138.4735962463496
 20
252.2850627673176
 30
0.0
 10
-138.3896407414601
 20
252.0899659708493
 30
0.0
 10
-138.2618875291382
 20
251.9221602650576
 30
0.0
 10
-138.0940818233466
 20
251.7944070527358
 30
0.0
 10
-137.8989850268781
 20
251.7104515478465
 30
0.0
 10
-137.759358548661
 20
251.6998395700812
 30
0.0
 10
-137.689544712691
 20
251.6945335430537
 30
0.0
 11
-138.4895142511423
 21
252.4945030815048
 31
0.0
 11
-138.4622562962137
 21
252.2874519007077
 31
0.0
 11
-138.3823406467605
 21
252.0945136002869
 31
0.0
 11
-138.2552121425559
 21
251.9288356516399
 31
0.0
 11
-138.0895341939089
 21
251.8017071474354
 31
0.0
 11
-137.8965958934881
 21
251.7217914979823
 31
0.0
 11
-137.689544712691
 21
251.6945335430537
 31
0.0
  0
SPLINE
  5
2DA
330
1F
100
AcDbEntity
  8
0
  6
Continuous
 62
     7
100
AcDbSpline
210
0.0
220
0.0
230
1.0
 70
     8
 71
     3
 72
     9
 73
     5
 74
     3
 42
0.000000001
 43
0.0000000001
 44
0.00000001
 40
0.0
 40
0.0
 40
0.0
 40
0.0
 40
0.0152937468171257
 40
0.0305934608322752
 40
0.0305934608322752
 40
0.0305934608322752
 40
0.0305934608322752
 10
-135.2097769651468
 20
178.3660028599782
 30
0.0
 10
-135.2098259808793
 20
178.3711005639864
 30
0.0
 10
-135.2099240114695
 20
178.3812979611234
 30
0.0
 10
-135.2099380273497
 20
178.3914958198388
 30
0.0
 10
-135.209945026655
 20
178.3965957437746
 30
0.0
 11
-135.2097769651468
 21
178.3660028599782
 31
0.0
 11
-135.2099030068638
 21
178.3812960874346
 31
0.0
 11
-135.209945026655
 21
178.3965957437746
 31
0.0
  0
SPLINE
  5
2DB
330
1F
100
AcDbEntity
  8
0
  6
Continuous
 62
     7
100
AcDbSpline
210
0.0
220
0.0
230
1.0
 70
     8
 71
     3
 72
     9
 73
     5
 74
     3
 42
0.000000001
 43
0.0000000001
 44
0.00000001
 40
0.0
 40
0.0
 40
0.0
 40
0.0
 40
0.4287058800446401
 40
0.7541048467964395
 40
0.7541048467964395
 40
0.7541048467964395
 40
0.7541048467964395
 10
-136.682085720651
 20
101.8492753027566
 30
0.0
 10
-136.658890354851
 20
101.9980207056716
 30
0.0
 10
-136.6180890834144
 20
102.2596677480784
 30
0.0
 10
-136.4037801885352
 20
102.4088082639375
 30
0.0
 10
-136.3113051198242
 20
102.4731629298706
 30
0.0
 11
-136.682085720651
 21
101.8492753027566
 31
0.0
 11
-136.5564240062871
 21
102.2591507319777
 31
0.0
 11
-136.3113051198242
 21
102.4731629298706
 31
0.0
  0
SPLINE
  5
2DC
330
1F
100
AcDbEntity
  8
0
  6
Continuous
 62
     7
100
AcDbSpline
210
0.0
220
0.0
230
1.0
 70
     8
 71
     3
 72
     9
 73
     5
 74
     3
 42
0.000000001
 43
0.0000000001
 44
0.00000001
 40
0.0
 40
0.0
 40
0.0
 40
0.0
 40
0.4625106101752616
 40
0.7863270608258002
 40
0.7863270608258002
 40
0.7863270608258002
 40
0.7863270608258002
 10
-136.2402745708974
 20
95.35972557340635
 30
0.0
 10
-136.3232991048457
 20
95.22805116565172
 30
0.0
 10
-136.4644513891578
 20
95.0041878604845
 30
0.0
 10
-136.5231448550588
 20
94.74703247753081
 30
0.0
 10
-136.5473153363295
 20
94.64113360982826
 30
0.0
 11
-136.2402745708974
 21
95.35972557340635
 31
0.0
 11
-136.4608199802593
 21
94.95318432337112
 31
0.0
 11
-136.5473153363295
 21
94.64113360982826
 31
0.0
  0
SPLINE
  5
2DD
330
1F
100
AcDbEntity
  8
0
  6
Continuous
 62
     7
100
AcDbSpline
210
0.0
220
0.0
230
1.0
 70
     8
 71
     3
 72
     9
 73
     5
 74
     3
 42
0.000000001
 43
0.0000000001
 44
0.00000001
 40
0.0
 40
0.0
 40
0.0
 40
0.0
 40
0.4138356766490913
 40
0.7094655249677005
 40
0.7094655249677005
 40
0.7094655249677005
 40
0.7094655249677005
 10
-135.9862551417809
 20
94.66840963639328
 30
0.0
 10
-136.0087610931112
 20
94.52349018597727
 30
0.0
 10
-136.0473445315973
 20
94.275045317699
 30
0.0
 10
-136.2572374642811
 20
94.14565665517736
 30
0.0
 10
-136.3446985425317
 20
94.09174121428494
 30
0.0
 11
-135.9862551417809
 21
94.66840963639328
 31
0.0
 11
-136.1120604084431
 21
94.27415970984742
 31
0.0
 11
-136.3446985425317
 21
94.09174121428494
 31
0.0
  0
SPLINE
  5
2DE
330
1F
100
AcDbEntity
  8
0
  6
Continuous
 62
     7
100
AcDbSpline
210
0.0
220
0.0
230
1.0
 70
     8
 71
     3
 72
     9
 73
     5
 74
     3
 42
0.000000001
 43
0.0000000001
 44
0.00000001
 40
0.0
 40
0.0
 40
0.0
 40
0.0
 40
0.3733669548543886
 40
0.6367738187537566
 40
0.6367738187537566
 40
0.6367738187537566
 40
0.6367738187537566
 10
-135.9805211319969
 20
100.9492952552009
 30
0.0
 10
-136.0066033604591
 20
100.8208163764537
 30
0.0
 10
-136.0510863715242
 20
100.6016968706312
 30
0.0
 10
-136.2351905618283
 20
100.481652582677
 30
0.0
 10
-136.311346819446
 20
100.4319952556817
 30
0.0
 11
-135.9805211319969
 21
100.9492952552009
 31
0.0
 11
-136.1067690910186
 21
100.5979203303304
 31
0.0
 11
-136.311346819446
 21
100.4319952556817
 31
0.0
  0
SPLINE
  5
2DF
330
1F
100
AcDbEntity
  8
0
  6
Continuous
 62
     7
100
AcDbSpline
210
0.0
220
0.0
230
1.0
 70
     8
 71
     3
 72
     9
 73
     5
 74
     3
 42
0.000000001
 43
0.0000000001
 44
0.00000001
 40
0.0
 40
0.0
 40
0.0
 40
0.0
 40
0.1664146621054087
 40
0.4263328389533518
 40
0.4263328389533518
 40
0.4263328389533518
 40
0.4263328389533518
 10
-136.313790374262
 20
100.6332230305969
 30
0.0
 10
-136.2680258764728
 20
100.6675922612049
 30
0.0
 10
-136.1507831672769
 20
100.7556417980741
 30
0.0
 10
-136.1282633388001
 20
100.9036631254083
 30
0.0
 10
-136.1145339054622
 20
100.9939058475923
 30
0.0
 11
-136.313790374262
 21
100.6332230305969
 31
0.0
 11
-136.1909293484211
 21
100.7454683377069
 31
0.0
 11
-136.1145339054622
 21
100.9939058475923
 31
0.0
  0
SPLINE
  5
2E0
330
1F
100
AcDbEntity
  8
0
  6
Continuous
 62
     7
100
AcDbSpline
210
0.0
220
0.0
230
1.0
 70
     8
 71
     3
 72
     9
 73
     5
 74
     3
 42
0.000000001
 43
0.0000000001
 44
0.00000001
 40
0.0
 40
0.0
 40
0.0
 40
0.0
 40
0.215701304099101
 40
0.3751478277200623
 40
0.3751478277200623
 40
0.3751478277200623
 40
0.3751478277200623
 10
-136.4927276996362
 20
100.9462626445369
 30
0.0
 10
-136.4826259043663
 20
100.8710014682646
 30
0.0
 10
-136.4650568395332
 20
100.7401071972147
 30
0.0
 10
-136.3589066651865
 20
100.6651019808179
 30
0.0
 10
-136.313790374262
 20
100.6332230305969
 30
0.0
 11
-136.4927276996362
 21
100.9462626445369
 31
0.0
 11
-136.4331375350271
 21
100.7389559488506
 31
0.0
 11
-136.313790374262
 21
100.6332230305969
 31
0.0
  0
SPLINE
  5
2E1
330
1F
100
AcDbEntity
  8
0
  6
Continuous
 62
     7
100
AcDbSpline
210
0.0
220
0.0
230
1.0
 70
     8
 71
     3
 72
     9
 73
     5
 74
     3
 42
0.000000001
 43
0.0000000001
 44
0.00000001
 40
0.0
 40
0.0
 40
0.0
 40
0.0
 40
0.177827039336069
 40
0.421518742189621
 40
0.421518742189621
 40
0.421518742189621
 40
0.421518742189621
 10
-136.2676392424201
 20
101.279428616885
 30
0.0
 10
-136.3220299977999
 20
101.2496477471511
 30
0.0
 10
-136.4509570756611
 20
101.1790555732255
 30
0.0
 10
-136.4774255487731
 20
101.0315434875472
 30
0.0
 10
-136.4927276996362
 20
100.9462626445369
 30
0.0
 11
-136.2676392424201
 21
101.279428616885
 31
0.0
 11
-136.4125763175147
 21
101.1763960916172
 31
0.0
 11
-136.4927276996362
 21
100.9462626445369
 31
0.0
  0
SPLINE
  5
2E2
330
1F
100
AcDbEntity
  8
0
  6
Continuous
 62
     7
100
AcDbSpline
210
0.0
220
0.0
230
1.0
 70
     8
 71
     3
 72
     9
 73
     5
 74
     3
 42
0.000000001
 43
0.0000000001
 44
0.00000001
 40
0.0
 40
0.0
 40
0.0
 40
0.0
 40
0.0124076373235641
 40
0.021585681598005
 40
0.021585681598005
 40
0.021585681598005
 40
0.021585681598005
 10
-136.2463070450968
 20
101.2763156609982
 30
0.0
 10
-136.2503531595362
 20
101.2772103742692
 30
0.0
 10
-136.2573922254525
 20
101.2787668950732
 30
0.0
 10
-136.2645821486413
 20
101.2792312049803
 30
0.0
 10
-136.2676392424201
 20
101.279428616885
 30
0.0
 11
-136.2463070450968
 21
101.2763156609982
 31
0.0
 11
-136.2584952346605
 21
101.2786389155662
 31
0.0
 11
-136.2676392424201
 21
101.279428616885
 31
0.0
  0
SPLINE
  5
2E3
330
1F
100
AcDbEntity
  8
0
  6
Continuous
 62
     7
100
AcDbSpline
210
0.0
220
0.0
230
1.0
 70
     8
 71
     3
 72
     9
 73
     5
 74
     3
 42
0.000000001
 43
0.0000000001
 44
0.00000001
 40
0.0
 40
0.0
 40
0.0
 40
0.0
 40
0.2763704334169361
 40
0.4393863369009364
 40
0.4393863369009364
 40
0.4393863369009364
 40
0.4393863369009364
 10
-136.3588188486446
 20
95.47898510161264
 30
0.0
 10
-136.3077581801344
 20
95.55596455641421
 30
0.0
 10
-136.2265796160881
 20
95.67835001963049
 30
0.0
 10
-136.1676408935501
 20
95.81266168236287
 30
0.0
 10
-136.1457741554187
 20
95.86249240473083
 30
0.0
 11
-136.3588188486446
 21
95.47898510161264
 31
0.0
 11
-136.2144356234781
 21
95.71464184578738
 31
0.0
 11
-136.1457741554187
 21
95.86249240473083
 31
0.0
  0
SPLINE
  5
2E4
330
1F
100
AcDbEntity
  8
0
  6
Continuous
 62
     7
100
AcDbSpline
210
0.0
220
0.0
230
1.0
 70
     8
 71
     3
 72
     9
 73
     5
 74
     3
 42
0.000000001
 43
0.0000000001
 44
0.00000001
 40
0.0
 40
0.0
 40
0.0
 40
0.0
 40
0.2892810433163024
 40
0.6298979591216072
 40
0.6298979591216072
 40
0.6298979591216072
 40
0.6298979591216072
 10
-135.9717972986979
 20
95.92751820667733
 30
0.0
 10
-136.0025999259351
 20
95.83580819135024
 30
0.0
 10
-136.069671439397
 20
95.63611329045614
 30
0.0
 10
-136.180398807971
 20
95.45672803169721
 30
0.0
 10
-136.2402745708974
 20
95.35972557340635
 30
0.0
 11
-135.9717972986979
 21
95.92751820667733
 31
0.0
 11
-136.0734126951344
 21
95.65667169355326
 31
0.0
 11
-136.2402745708974
 21
95.35972557340635
 31
0.0
  0
SPLINE
  5
2E5
330
1F
100
AcDbEntity
  8
0
  6
Continuous
 62
     7
100
AcDbSpline
210
0.0
220
0.0
230
1.0
 70
     8
 71
     3
 72
     9
 73
     5
 74
     3
 42
0.000000001
 43
0.0000000001
 44
0.00000001
 40
0.0
 40
0.0
 40
0.0
 40
0.0
 40
0.0869437155758179
 40
0.1716674555087399
 40
0.1716674555087399
 40
0.1716674555087399
 40
0.1716674555087399
 10
-135.9560399518328
 20
96.0982032948965
 30
0.0
 10
-135.9563445165014
 20
96.06916875309048
 30
0.0
 10
-135.9569458891497
 20
96.01184102369571
 30
0.0
 10
-135.9668896861877
 20
95.95538244048387
 30
0.0
 10
-135.9717972986979
 20
95.92751820667733
 30
0.0
 11
-135.9560399518328
 21
96.0982032948965
 31
0.0
 11
-135.9593500600897
 21
96.0113226125989
 31
0.0
 11
-135.9717972986979
 21
95.92751820667733
 31
0.0
  0
SPLINE
  5
2E6
330
1F
100
AcDbEntity
  8
0
  6
Continuous
 62
     7
100
AcDbSpline
210
0.0
220
0.0
230
1.0
 70
     8
 71
     3
 72
     9
 73
     5
 74
     3
 42
0.000000001
 43
0.0000000001
 44
0.00000001
 40
0.0
 40
0.0
 40
0.0
 40
0.0
 40
0.2060628911531473
 40
0.4917300885224825
 40
0.4917300885224825
 40
0.4917300885224825
 40
0.4917300885224825
 10
-136.31191491669
 20
102.2704199414616
 30
0.0
 10
-136.3681771514636
 20
102.2269863483134
 30
0.0
 10
-136.5024363114265
 20
102.1233402860747
 30
0.0
 10
-136.525424885582
 20
101.9526049735948
 30
0.0
 10
-136.5387799289138
 20
101.8534174686201
 30
0.0
 11
-136.31191491669
 21
102.2704199414616
 31
0.0
 11
-136.4611615351139
 21
102.1283377008811
 31
0.0
 11
-136.5387799289138
 21
101.8534174686201
 31
0.0
  0
SPLINE
  5
2E7
330
1F
100
AcDbEntity
  8
0
  6
Continuous
 62
     7
100
AcDbSpline
210
0.0
220
0.0
230
1.0
 70
     8
 71
     3
 72
     9
 73
     5
 74
     3
 42
0.000000001
 43
0.0000000001
 44
0.00000001
 40
0.0
 40
0.0
 40
0.0
 40
0.0
 40
0.2676849599677514
 40
0.4614899318540094
 40
0.4614899318540094
 40
0.4614899318540094
 40
0.4614899318540094
 10
-136.5387799289138
 20
101.8534174686201
 30
0.0
 10
-136.5271710838593
 20
101.7600004567344
 30
0.0
 10
-136.5071573719064
 20
101.598949166357
 30
0.0
 10
-136.3788812350352
 20
101.5039490107561
 30
0.0
 10
-136.3250110329372
 20
101.464053232512
 30
0.0
 11
-136.5387799289138
 21
101.8534174686201
 31
0.0
 11
-136.467528242392
 21
101.5953894925555
 31
0.0
 11
-136.3250110329372
 21
101.464053232512
 31
0.0
  0
SPLINE
  5
2E8
330
1F
100
AcDbEntity
  8
0
  6
Continuous
 62
     7
100
AcDbSpline
210
0.0
220
0.0
230
1.0
 70
     8
 71
     3
 72
     9
 73
     5
 74
     3
 42
0.000000001
 43
0.0000000001
 44
0.00000001
 40
0.0
 40
0.0
 40
0.0
 40
0.0
 40
0.1941377895041022
 40
0.4740321566755158
 40
0.4740321566755158
 40
0.4740321566755158
 40
0.4740321566755158
 10
-136.3410399789229
 20
94.29447503281625
 30
0.0
 10
-136.2864264053877
 20
94.33375654164675
 30
0.0
 10
-136.1530747929169
 20
94.42967141195936
 30
0.0
 10
-136.1353573918091
 20
94.59633445375825
 30
0.0
 10
-136.1248960846268
 20
94.69474138314322
 30
0.0
 11
-136.3410399789229
 21
94.29447503281625
 31
0.0
 11
-136.196594311163
 21
94.4241859864373
 31
0.0
 11
-136.1248960846268
 21
94.69474138314322
 31
0.0
  0
SPLINE
  5
2E9
330
1F
100
AcDbEntity
  8
0
  6
Continuous
 62
     7
100
AcDbSpline
210
0.0
220
0.0
230
1.0
 70
     8
 71
     3
 72
     9
 73
     5
 74
     3
 42
0.000000001
 43
0.0000000001
 44
0.00000001
 40
0.0
 40
0.0
 40
0.0
 40
0.0
 40
0.0432306425791406
 40
0.0989960378187413
 40
0.0989960378187413
 40
0.0989960378187413
 40
0.0989960378187413
 10
-136.3250110329372
 20
101.464053232512
 30
0.0
 10
-136.3105963483168
 20
101.4656346085771
 30
0.0
 10
-136.2775874359451
 20
101.4692559014608
 30
0.0
 10
-136.2474138149134
 20
101.4832978788343
 30
0.0
 10
-136.2304167350053
 20
101.4912078669908
 30
0.0
 11
-136.3250110329372
 21
101.464053232512
 31
0.0
 11
-136.2823076663105
 21
101.4707845793962
 31
0.0
 11
-136.2304167350053
 21
101.4912078669908
 31
0.0
  0
SPLINE
  5
2EA
330
1F
100
AcDbEntity
  8
0
  6
Continuous
 62
     7
100
AcDbSpline
210
0.0
220
0.0
230
1.0
 70
     8
 71
     3
 72
     9
 73
     5
 74
     3
 42
0.000000001
 43
0.0000000001
 44
0.00000001
 40
0.0
 40
0.0
 40
0.0
 40
0.0
 40
0.292380325478079
 40
0.6885086499346331
 40
0.6885086499346331
 40
0.6885086499346331
 40
0.6885086499346331
 10
-136.3113051198242
 20
102.4731629298706
 30
0.0
 10
-136.2276241012835
 20
102.4164620907396
 30
0.0
 10
-136.0305687728984
 20
102.2829407189648
 30
0.0
 10
-135.9882598622154
 20
102.0449927364189
 30
0.0
 10
-135.9639177551226
 20
101.9080911314225
 30
0.0
 11
-136.3113051198242
 21
102.4731629298706
 31
0.0
 11
-136.0881681000039
 21
102.2842287437159
 31
0.0
 11
-135.9639177551226
 21
101.9080911314225
 31
0.0
  0
SPLINE
  5
2EB
330
1F
100
AcDbEntity
  8
0
  6
Continuous
 62
     7
100
AcDbSpline
210
0.0
220
0.0
230
1.0
 70
     8
 71
     3
 72
     9
 73
     5
 74
     3
 42
0.000000001
 43
0.0000000001
 44
0.00000001
 40
0.0
 40
0.0
 40
0.0
 40
0.0
 40
0.2880218424043599
 40
0.4632153590346123
 40
0.4632153590346123
 40
0.4632153590346123
 40
0.4632153590346123
 10
-136.09815977553
 20
101.876482555239
 30
0.0
 10
-136.1133166277099
 20
101.976516963512
 30
0.0
 10
-136.1376928752192
 20
102.1373987605996
 30
0.0
 10
-136.264104530783
 20
102.2339159908994
 30
0.0
 10
-136.31191491669
 20
102.2704199414616
 30
0.0
 11
-136.09815977553
 21
101.876482555239
 31
0.0
 11
-136.1830793318332
 21
102.1517011086825
 31
0.0
 11
-136.31191491669
 21
102.2704199414616
 31
0.0
  0
SPLINE
  5
2EC
330
1F
100
AcDbEntity
  8
0
  6
Continuous
 62
     7
100
AcDbSpline
210
0.0
220
0.0
230
1.0
 70
     8
 71
     3
 72
     9
 73
     5
 74
     3
 42
0.000000001
 43
0.0000000001
 44
0.00000001
 40
0.0
 40
0.0
 40
0.0
 40
0.0
 40
0.2327830053277036
 40
0.4383173162773927
 40
0.4383173162773927
 40
0.4383173162773927
 40
0.4383173162773927
 10
-136.6314328316258
 20
100.9512530240859
 30
0.0
 10
-136.6215545536137
 20
101.0295578088296
 30
0.0
 10
-136.6029542925568
 20
101.1770013118881
 30
0.0
 10
-136.5187732086961
 20
101.2990530141796
 30
0.0
 10
-136.4792992841161
 20
101.3562850919586
 30
0.0
 11
-136.6314328316258
 21
100.9512530240859
 31
0.0
 11
-136.5833009508313
 21
101.1790056319031
 31
0.0
 11
-136.4792992841161
 21
101.3562850919586
 31
0.0
  0
SPLINE
  5
2ED
330
1F
100
AcDbEntity
  8
0
  6
Continuous
 62
     7
100
AcDbSpline
210
0.0
220
0.0
230
1.0
 70
     8
 71
     3
 72
    10
 73
     6
 74
     4
 42
0.000000001
 43
0.0000000001
 44
0.00000001
 40
0.0
 40
0.0
 40
0.0
 40
0.0
 40
0.1664217218580737
 40
0.411915402928593
 40
0.6408229549740747
 40
0.6408229549740747
 40
0.6408229549740747
 40
0.6408229549740747
 10
-136.311346819446
 20
100.4319952556817
 30
0.0
 10
-136.3619377340978
 20
100.4570137147976
 30
0.0
 10
-136.4871568191398
 20
100.5189376682868
 30
0.0
 10
-136.5923990946907
 20
100.7212123163854
 30
0.0
 10
-136.6187284345195
 20
100.8763811374909
 30
0.0
 10
-136.6314328316258
 20
100.9512530240859
 30
0.0
 11
-136.311346819446
 21
100.4319952556817
 31
0.0
 11
-136.453722283535
 21
100.518166118546
 31
0.0
 11
-136.5813101977367
 21
100.7279004125318
 31
0.0
 11
-136.6314328316258
 21
100.9512530240859
 31
0.0
  0
SPLINE
  5
2EE
330
1F
100
AcDbEntity
  8
0
  6
Continuous
 62
     7
100
AcDbSpline
210
0.0
220
0.0
230
1.0
 70
     8
 71
     3
 72
     9
 73
     5
 74
     3
 42
0.000000001
 43
0.0000000001
 44
0.00000001
 40
0.0
 40
0.0
 40
0.0
 40
0.0
 40
0.2380515634121878
 40
0.4201158127734906
 40
0.4201158127734906
 40
0.4201158127734906
 40
0.4201158127734906
 10
-136.5473153363295
 20
94.64113360982826
 30
0.0
 10
-136.5352446663748
 20
94.55819718436895
 30
0.0
 10
-136.5139422089018
 20
94.41183014833139
 30
0.0
 10
-136.3933155676093
 20
94.32995639457123
 30
0.0
 10
-136.3410399789229
 20
94.29447503281625
 30
0.0
 11
-136.5473153363295
 21
94.64113360982826
 31
0.0
 11
-136.4792129850475
 21
94.41303140042439
 31
0.0
 11
-136.3410399789229
 21
94.29447503281625
 31
0.0
  0
SPLINE
  5
2EF
330
1F
100
AcDbEntity
  8
0
  6
Continuous
 62
     7
100
AcDbSpline
210
0.0
220
0.0
230
1.0
 70
     8
 71
     3
 72
     9
 73
     5
 74
     3
 42
0.000000001
 43
0.0000000001
 44
0.00000001
 40
0.0
 40
0.0
 40
0.0
 40
0.0
 40
0.2344639073096117
 40
0.5448186822796486
 40
0.5448186822796486
 40
0.5448186822796486
 40
0.5448186822796486
 10
-136.4792992841161
 20
101.3562850919586
 30
0.0
 10
-136.5317558893325
 20
101.4165714692707
 30
0.0
 10
-136.6536481452715
 20
101.5566576234773
 30
0.0
 10
-136.6717653212885
 20
101.7430801264613
 30
0.0
 10
-136.682085720651
 20
101.8492753027566
 30
0.0
 11
-136.4792992841161
 21
101.3562850919586
 31
0.0
 11
-136.617449638506
 21
101.5457258594587
 31
0.0
 11
-136.682085720651
 21
101.8492753027566
 31
0.0
  0
SPLINE
  5
2F0
330
1F
100
AcDbEntity
  8
0
  6
Continuous
 62
     7
100
AcDbSpline
210
0.0
220
0.0
230
1.0
 70
     8
 71
     3
 72
     9
 73
     5
 74
     3
 42
0.000000001
 43
0.0000000001
 44
0.00000001
 40
0.0
 40
0.0
 40
0.0
 40
0.0
 40
0.2983184036515027
 40
0.6811263537455658
 40
0.6811263537455658
 40
0.6811263537455658
 40
0.6811263537455658
 10
-136.3446985425317
 20
94.09174121428494
 30
0.0
 10
-136.4319962700701
 20
94.14791028757976
 30
0.0
 10
-136.6313161178079
 20
94.27615661622966
 30
0.0
 10
-136.6663346881182
 20
94.51398410367088
 30
0.0
 10
-136.6860158833803
 20
94.64764837274875
 30
0.0
 11
-136.3446985425317
 21
94.09174121428494
 31
0.0
 11
-136.5750746640145
 21
94.2812688226634
 31
0.0
 11
-136.6860158833803
 21
94.64764837274875
 31
0.0
  0
SPLINE
  5
2F1
330
1F
100
AcDbEntity
  8
0
  6
Continuous
 62
     7
100
AcDbSpline
210
0.0
220
0.0
230
1.0
 70
     8
 71
     3
 72
     9
 73
     5
 74
     3
 42
0.000000001
 43
0.0000000001
 44
0.00000001
 40
0.0
 40
0.0
 40
0.0
 40
0.0
 40
0.3760305460393925
 40
0.9000122678818412
 40
0.9000122678818412
 40
0.9000122678818412
 40
0.9000122678818412
 10
-136.6860158833803
 20
94.64764837274875
 30
0.0
 10
-136.6632454949838
 20
94.77186995151807
 30
0.0
 10
-136.6087455707791
 20
95.0691887303621
 30
0.0
 10
-136.4507834530878
 20
95.32819387237683
 30
0.0
 10
-136.3588188486446
 20
95.47898510161264
 30
0.0
 11
-136.6860158833803
 21
94.64764837274875
 31
0.0
 11
-136.5996441569807
 21
95.01362500773432
 31
0.0
 11
-136.3588188486446
 21
95.47898510161264
 31
0.0
  0
SPLINE
  5
2F2
330
1F
100
AcDbEntity
  8
0
  6
Continuous
 62
     7
100
AcDbSpline
210
0.0
220
0.0
230
1.0
 70
     8
 71
     3
 72
     9
 73
     5
 74
     3
 42
0.000000001
 43
0.0000000001
 44
0.00000001
 40
0.0
 40
0.0
 40
0.0
 40
0.0
 40
0.3032495724342598
 40
0.5966554098566135
 40
0.5966554098566135
 40
0.5966554098566135
 40
0.5966554098566135
 10
-136.0960552803834
 20
87.30028467337159
 30
0.0
 10
-136.1634200928719
 20
87.22397062875916
 30
0.0
 10
-136.2959629834684
 20
87.07381974586824
 30
0.0
 10
-136.3755154685482
 20
86.89007356621619
 30
0.0
 10
-136.4146354665333
 20
86.7997162114282
 30
0.0
 11
-136.0960552803834
 21
87.30028467337159
 31
0.0
 11
-136.2844613796928
 21
87.06266429217007
 31
0.0
 11
-136.4146354665333
 21
86.7997162114282
 31
0.0
  0
SPLINE
  5
2F3
330
1F
100
AcDbEntity
  8
0
  6
Continuous
 62
     7
100
AcDbSpline
210
0.0
220
0.0
230
1.0
 70
     8
 71
     3
 72
     9
 73
     5
 74
     3
 42
0.000000001
 43
0.0000000001
 44
0.00000001
 40
0.0
 40
0.0
 40
0.0
 40
0.0
 40
0.2085799929900366
 40
0.4013311773104658
 40
0.4013311773104658
 40
0.4013311773104658
 40
0.4013311773104658
 10
-136.3660453648142
 20
87.24316963942955
 30
0.0
 10
-136.3245095758023
 20
87.29921024565586
 30
0.0
 10
-136.2445900686034
 20
87.40703861131965
 30
0.0
 10
-136.1437645015068
 20
87.49556909787118
 30
0.0
 10
-136.0953400299243
 20
87.53808847932503
 30
0.0
 11
-136.3660453648142
 21
87.24316963942955
 31
0.0
 11
-136.2357910687423
 21
87.40607891518228
 31
0.0
 11
-136.0953400299243
 21
87.53808847932503
 31
0.0
  0
ARC
  5
2F4
102
{ACAD_REACTORS
330
328
102
}
330
1F
100
AcDbEntity
  8
1
  6
Continuous
 62
     7
100
AcDbCircle
 10
-18.32369931125729
 20
12.83333333333326
 30
0.0
 40
0.1666666666667028
100
AcDbArc
 50
209.9999999999634
 51
330.0000000000195
  0
ARC
  5
2F5
102
{ACAD_REACTORS
330
329
102
}
330
1F
100
AcDbEntity
  8
1
  6
Continuous
 62
     7
100
AcDbCircle
 10
-20.65703264459069
 20
10.2700211480327
 30
0.0
 40
0.6666666666666003
100
AcDbArc
 50
180.0000000000104
 51
240.018360631158
  0
ARC
  5
2F6
330
1F
100
AcDbEntity
  8
1
  6
Continuous
 62
     7
100
AcDbCircle
 10
-26.65684751081719
 20
12.5
 30
0.0
 40
0.1666666666665959
100
AcDbArc
 50
119.9816393689121
 51
240.0183606311065
  0
ARC
  5
2F7
330
1F
100
AcDbEntity
  8
1
  6
Continuous
 62
     7
100
AcDbCircle
 10
-9.99055111169739
 20
12.5
 30
0.0
 40
0.1666666666665779
100
AcDbArc
 50
299.9816393688268
 51
60.01836063115454
  0
ARC
  5
2F8
102
{ACAD_REACTORS
330
32B
102
}
330
1F
100
AcDbEntity
  8
1
  6
Continuous
 62
     7
100
AcDbCircle
 10
-15.65703264459069
 20
14.92250016016737
 30
0.0
 40
0.3333333333333598
100
AcDbArc
 50
60.0183606311539
 51
180.0
  0
ARC
  5
2F9
102
{ACAD_REACTORS
330
32B
102
}
330
1F
100
AcDbEntity
  8
1
  6
Continuous
 62
     7
100
AcDbCircle
 10
-15.65703264459069
 20
10.07749983983257
 30
0.0
 40
0.3333333333332007
100
AcDbArc
 50
180.0
 51
299.9816393688464
  0
ARC
  5
2FA
330
1F
100
AcDbEntity
  8
1
  6
Continuous
 62
     7
100
AcDbCircle
 10
-145.0109510923891
 20
170.2520945612749
 30
0.0
 40
0.0490206755352575
100
AcDbArc
 50
119.9816393688737
 51
240.0183606310765
  0
ARC
  5
2FB
330
1F
100
AcDbEntity
  8
1
  6
Continuous
 62
     7
100
AcDbCircle
 10
-140.1089924434596
 20
170.2520945612749
 30
0.0
 40
0.0490206755352263
100
AcDbArc
 50
299.9816393690098
 51
60.01836063104
  0
MTEXT
  5
2FD
330
1F
100
AcDbEntity
  8
1
 62
     7
100
AcDbMText
 10
-194.0000000000001
 20
151.4999999999998
 30
0.0
 40
4.0
 41
0.0
 71
     5
 72
     1
  1
Diritti riservati      All rights reserved
  7
CONVERTER_11
 11
0.0
 21
1.0
 31
0.0
 73
     1
 44
1.32052821128451
  0
MTEXT
  5
2FE
330
1F
100
AcDbEntity
  8
1
 62
     7
100
AcDbMText
 10
-187.0
 20
16.26063942075598
 30
0.0
 40
3.0
 41
0.0
 71
     4
 72
     1
  1
Date
  7
CONVERTER_11
 73
     1
 44
1.32052821128451
  0
MTEXT
  5
2FF
330
1F
100
AcDbEntity
  8
1
 62
     7
100
AcDbMText
 10
-176.4
 20
16.26063942075598
 30
0.0
 40
3.0
 41
0.0
 71
     4
 72
     1
  1
05/05/08
  7
CONVERTER_11
 73
     1
 44
1.32052821128451
  0
MTEXT
  5
300
330
1F
100
AcDbEntity
  8
1
 62
     7
100
AcDbMText
 10
-187.0
 20
8.75
 30
0.0
 40
3.0
 41
0.0
 71
     4
 72
     1
  1
Sign.
  7
CONVERTER_11
 73
     1
 44
1.32052821128451
  0
MTEXT
  5
301
330
1F
100
AcDbEntity
  8
1
 62
     7
100
AcDbMText
 10
-176.4
 20
8.75
 30
0.0
 40
3.0
 41
0.0
 71
     4
 72
     1
  1
T.Tedeschi
  7
CONVERTER_11
 73
     1
 44
1.32052821128451
  0
MTEXT
  5
303
330
1F
100
AcDbEntity
  8
1
 62
     7
100
AcDbMText
 10
-152.7236993112573
 20
12.65304352946998
 30
0.0
 40
4.5
 41
0.0
 71
     4
 72
     1
  1
CX 04 LM\Pmale modular 4P POF-COAX
  7
CONVERTER_12
 73
     1
 44
0.90036014405762
  0
MTEXT
  5
304
330
1F
100
AcDbEntity
  8
1
 62
     7
100
AcDbMText
 10
-40.32369931125729
 20
16.26063942075598
 30
0.0
 40
3.0
 41
0.0
 71
     5
 72
     1
  1
Scale
  7
CONVERTER_11
 73
     1
 44
1.32052821128451
  0
MTEXT
  5
305
330
1F
100
AcDbEntity
  8
1
 62
     7
100
AcDbMText
 10
-40.32369931125729
 20
10.0606394207561
 30
0.0
 40
4.5
 41
0.0
 71
     5
 72
     1
  1
1:1
  7
CONVERTER_11
 73
     1
 44
1.32052821128451
  0
DIMENSION
  5
311
330
1F
100
AcDbEntity
  8
1
100
AcDbDimension
  2
*D1
 10
-27.8692213784585
 20
187.3965957437744
 30
0.0
 11
-31.5192213784585
 21
170.2465957437746
 31
0.0
 70
    32
  1
<>
 71
     5
 42
-1.0
 53
90.0
  3
ME10_DIM_10
100
AcDbAlignedDimension
 13
-43.9899443859896
 23
153.0965957437748
 33
0.0
 14
-41.9899443859905
 24
187.3965957437743
 34
0.0
 50
90.0
100
AcDbRotatedDimension
  0
DIMENSION
  5
31C
330
1F
100
AcDbEntity
  8
1
100
AcDbDimension
  2
*D2
 10
-73.98994438598994
 20
199.70414235706
 30
0.0
 11
-58.98994438598957
 21
203.20414235706
 31
0.0
 70
    32
  1
<>
 71
     5
 42
-1.0
 53
0.00013888888889
  3
ME10_DIM_11
100
AcDbAlignedDimension
 13
-43.98994438598919
 23
187.3965957437743
 33
0.0
 14
-73.98994438598996
 24
187.3965957437743
 34
0.0
100
AcDbRotatedDimension
  0
DIMENSION
  5
327
330
1F
100
AcDbEntity
  8
1
100
AcDbDimension
  2
*D3
 10
-149.909945026655
 20
199.935355892649
 30
0.0
 11
-142.559945026655
 21
203.585355892649
 31
0.0
 70
    32
  1
<>
 71
     5
 42
-1.0
 53
0.00013888888889
  3
ME10_DIM_12
100
AcDbAlignedDimension
 13
-135.209945026655
 23
187.3965957437743
 33
0.0
 14
-149.909945026655
 24
187.396595743774
 34
0.0
100
AcDbRotatedDimension
  0
HATCH
  5
328
330
1F
100
AcDbEntity
  8
1
  6
Continuous
 62
     7
100
AcDbHatch
 10
0.0
 20
0.0
 30
0.0
210
0.0
220
0.0
230
1.0
  2
SOLID
 70
     1
 71
     1
 91
        1
 92
        1
 93
       16
 72
     2
 10
-16.921998857066
 20
15.73121731203457
 40
0.2649662124753114
 50
210.0000000000311
 51
360.0
 73
     0
 72
     1
 10
-16.65703264459069
 20
15.73121731203457
 11
-16.65703264459069
 21
9.308269070601796
 72
     2
 10
-16.99036597792389
 20
9.308269070601796
 40
0.3333333333333997
 50
0.0
 51
180.0
 73
     0
 72
     1
 10
-17.32369931125729
 20
9.308269070601796
 11
-17.32369931125729
 21
12.5
 72
     1
 10
-17.32369931125729
 20
12.5
 11
-17.32369931125729
 21
14.23205080756878
 72
     1
 10
-17.32369931125729
 20
14.23205080756878
 11
-18.1793617439599
 21
12.75
 72
     2
 10
-18.32369931125729
 20
12.83333333333326
 40
0.1666666666667028
 50
29.99999999998053
 51
150.0000000000366
 73
     0
 72
     1
 10
-18.46803687855478
 20
12.75
 11
-19.32369931125729
 21
14.23205080756878
 72
     1
 10
-19.32369931125729
 20
14.23205080756878
 11
-19.32369931125729
 21
12.5
 72
     1
 10
-19.32369931125729
 20
12.5
 11
-19.32369931125729
 21
10.84758507263291
 72
     2
 10
-19.65703264459069
 20
10.84758507263291
 40
0.3333333333333997
 50
0.0
 51
180.0
 73
     0
 72
     1
 10
-19.99036597792409
 20
10.84758507263291
 11
-19.99036597792409
 21
12.5
 72
     1
 10
-19.99036597792409
 20
12.5
 11
-19.99036597792409
 21
15.73121731203457
 72
     2
 10
-19.72539976544869
 20
15.73121731203457
 40
0.2649662124752854
 50
180.0
 51
329.9999999999808
 73
     0
 72
     1
 10
-19.49593229430059
 20
15.86370041827229
 11
-18.32369931125729
 21
13.83333333333326
 72
     1
 10
-18.32369931125729
 20
13.83333333333326
 11
-17.15146632821399
 21
15.86370041827229
 97
       16
330
BE
330
251
330
BD
330
BF
330
252
330
C0
330
B8
330
B7
330
2F4
330
B6
330
B5
330
C1
330
253
330
C2
330
254
330
C3
 75
     0
 76
     1
 98
        1
 10
0.0
 20
0.0
  0
HATCH
  5
329
330
1F
100
AcDbEntity
  8
1
  6
Continuous
 62
     7
100
AcDbHatch
 10
0.0
 20
0.0
 30
0.0
210
0.0
220
0.0
230
1.0
  2
SOLID
 70
     1
 71
     1
 91
        1
 92
        1
 93
        7
 72
     2
 10
-20.99036597792409
 20
14.92250016016737
 40
0.3333333333333997
 50
0.0
 51
180.0
 73
     1
 72
     1
 10
-21.32369931125729
 20
14.92250016016737
 11
-21.32369931125729
 21
10.27002114803258
 72
     2
 10
-20.65703264459069
 20
10.2700211480327
 40
0.6666666666666003
 50
180.0000000000104
 51
240.018360631158
 73
     1
 72
     1
 10
-20.99018094691701
 20
9.692564090666906
 11
-18.8236067957539
 21
8.442617464995806
 72
     2
 10
-18.65703264459069
 20
8.731345993678701
 40
0.3333333333333673
 50
240.0183606311504
 51
420.0183606311537
 73
     1
 72
     1
 10
-18.4904584934275
 20
9.020074522361597
 11
-20.65703264459069
 21
10.2700211480327
 72
     1
 10
-20.65703264459069
 20
10.2700211480327
 11
-20.65703264459069
 21
14.92250016016737
 97
        7
330
255
330
C4
330
2F5
330
C7
330
256
330
C6
330
C5
 75
     0
 76
     1
 98
        1
 10
0.0
 20
0.0
  0
HATCH
  5
32A
330
1F
100
AcDbEntity
  8
1
  6
Continuous
 62
     7
100
AcDbHatch
 10
0.0
 20
0.0
 30
0.0
210
0.0
220
0.0
230
1.0
  2
SOLID
 70
     1
 71
     1
 91
        1
 92
        1
 93
        5
 72
     2
 10
-22.32369931125729
 20
14.15326939093666
 40
0.3333333333332007
 50
0.0
 51
180.0
 73
     1
 72
     1
 10
-22.65703264459069
 20
14.15326939093666
 11
-22.65703264459069
 21
10.84673060906317
 72
     2
 10
-22.32369931125729
 20
10.84673060906317
 40
0.3333333333333997
 50
180.0
 51
360.0
 73
     1
 72
     1
 10
-21.99036597792409
 20
10.84673060906317
 11
-21.99036597792409
 21
11.0392519172633
 72
     1
 10
-21.99036597792409
 20
11.0392519172633
 11
-21.99036597792409
 21
14.15326939093666
 97
        5
330
257
330
CA
330
258
330
C9
330
C8
 75
     0
 76
     1
 98
        1
 10
0.0
 20
0.0
  0
HATCH
  5
32B
330
1F
100
AcDbEntity
  8
1
  6
Continuous
 62
     7
100
AcDbHatch
 10
0.0
 20
0.0
 30
0.0
210
0.0
220
0.0
230
1.0
  2
SOLID
 70
     1
 71
     1
 91
        1
 92
        1
 93
       14
 72
     2
 10
-15.65703264459069
 20
14.92250016016737
 40
0.3333333333333598
 50
60.0183606311539
 51
180.0
 73
     1
 72
     1
 10
-15.99036597792389
 20
14.92250016016737
 11
-15.99036597792389
 21
10.07749983983257
 72
     2
 10
-15.65703264459069
 20
10.07749983983257
 40
0.3333333333332007
 50
180.0
 51
299.9816393688464
 73
     1
 72
     1
 10
-15.4904584934275
 20
9.788771311149674
 11
-14.15712516009418
 21
10.55800208038028
 72
     2
 10
-14.32369931125729
 20
10.84673060906317
 40
0.3333333333333121
 50
299.9816393688349
 51
479.9816393688399
 73
     1
 72
     1
 10
-14.4902734624205
 20
11.13545913774618
 11
-15.32369931125729
 21
10.654636532648
 72
     1
 10
-15.32369931125729
 20
10.654636532648
 11
-15.32369931125729
 21
12.16666666666657
 72
     1
 10
-15.32369931125729
 20
12.16666666666657
 11
-14.32369931125729
 21
12.16666666666657
 72
     2
 10
-14.32369931125729
 20
12.5
 40
0.3333333333334298
 50
270.0
 51
450.0
 73
     1
 72
     1
 10
-14.32369931125729
 20
12.83333333333326
 11
-15.32369931125729
 21
12.83333333333326
 72
     1
 10
-15.32369931125729
 20
12.83333333333326
 11
-15.32369931125729
 21
14.345363467352
 72
     1
 10
-15.32369931125729
 20
14.345363467352
 11
-14.4902734624205
 21
13.86454086225376
 72
     2
 10
-14.32369931125729
 20
14.15326939093666
 40
0.333333333333372
 50
240.0183606311508
 51
420.0183606311504
 73
     1
 72
     1
 10
-14.15712516009418
 20
14.44199791961938
 11
-15.4904584934275
 21
15.21122868885027
 97
       14
330
259
330
CC
330
CD
330
CE
330
25A
330
CF
330
D0
330
D1
330
25B
330
D2
330
2F9
330
B4
330
2F8
330
CB
 75
     0
 76
     1
 98
        1
 10
0.0
 20
0.0
  0
ENDSEC
  0
SECTION
  2
OBJECTS
  0
DICTIONARY
  5
C
330
0
100
AcDbDictionary
281
     1
  3
ACAD_GROUP
350
D
  3
ACAD_LAYOUT
350
1A
  3
ACAD_MATERIAL
350
3B
  3
ACAD_MLEADERSTYLE
350
32E
  3
ACAD_MLINESTYLE
350
17
  3
ACAD_PLOTSETTINGS
350
19
  3
ACAD_PLOTSTYLENAME
350
E
  3
ACAD_VISUALSTYLE
350
2A
  3
AcDbVariableDictionary
350
32C
  0
DICTIONARY
  5
D
102
{ACAD_REACTORS
330
C
102
}
330
C
100
AcDbDictionary
281
     1
  0
DICTIONARY
  5
1A
102
{ACAD_REACTORS
330
C
102
}
330
C
100
AcDbDictionary
281
     1
  3
Layout1
350
1E
  3
Layout2
350
26
  3
Model
350
22
  0
DICTIONARY
  5
3B
102
{ACAD_REACTORS
330
C
102
}
330
C
100
AcDbDictionary
281
     1
  3
ByBlock
350
3D
  3
ByLayer
350
3C
  3
Global
350
3E
  0
DICTIONARY
  5
32E
102
{ACAD_REACTORS
330
C
102
}
330
C
100
AcDbDictionary
281
     1
  0
DICTIONARY
  5
17
102
{ACAD_REACTORS
330
C
102
}
330
C
100
AcDbDictionary
281
     1
  3
Standard
350
18
  0
DICTIONARY
  5
19
102
{ACAD_REACTORS
330
C
102
}
330
C
100
AcDbDictionary
281
     1
  0
ACDBDICTIONARYWDFLT
  5
E
102
{ACAD_REACTORS
330
C
102
}
330
C
100
AcDbDictionary
281
     1
  3
Normal
350
F
100
AcDbDictionaryWithDefault
340
F
  0
DICTIONARY
  5
2A
102
{ACAD_REACTORS
330
C
102
}
330
C
100
AcDbDictionary
281
     1
  3
2dWireframe
350
2F
  3
3D Hidden
350
31
  3
3dWireframe
350
30
  3
Basic
350
32
  3
Brighten
350
36
  3
ColorChange
350
3A
  3
Conceptual
350
34
  3
Dim
350
35
  3
Facepattern
350
39
  3
Flat
350
2B
  3
FlatWithEdges
350
2C
  3
Gouraud
350
2D
  3
GouraudWithEdges
350
2E
  3
Linepattern
350
38
  3
Realistic
350
33
  3
Thicken
350
37
  0
DICTIONARY
  5
32C
102
{ACAD_REACTORS
330
C
102
}
330
C
100
AcDbDictionary
281
     1
  3
DIMASSOC
350
32F
  3
HIDETEXT
350
330
  0
LAYOUT
  5
1E
102
{ACAD_REACTORS
330
1A
102
}
330
1A
100
AcDbPlotSettings
  1

  2
none_device
  4

  6

 40
0.0
 41
0.0
 42
0.0
 43
0.0
 44
0.0
 45
0.0
 46
0.0
 47
0.0
 48
0.0
 49
0.0
140
0.0
141
0.0
142
1.0
143
1.0
 70
   688
 72
     0
 73
     0
 74
     5
  7

 75
    16
147
1.0
148
0.0
149
0.0
100
AcDbLayout
  1
Layout1
 70
     1
 71
     1
 10
0.0
 20
0.0
 11
12.0
 21
9.0
 12
0.0
 22
0.0
 32
0.0
 14
1.00000000000000E+20
 24
1.00000000000000E+20
 34
1.00000000000000E+20
 15
-1.00000000000000E+20
 25
-1.00000000000000E+20
 35
-1.00000000000000E+20
146
0.0
 13
0.0
 23
0.0
 33
0.0
 16
1.0
 26
0.0
 36
0.0
 17
0.0
 27
1.0
 37
0.0
 76
     0
330
1B
  0
LAYOUT
  5
26
102
{ACAD_REACTORS
330
1A
102
}
330
1A
100
AcDbPlotSettings
  1

  2
none_device
  4

  6

 40
0.0
 41
0.0
 42
0.0
 43
0.0
 44
0.0
 45
0.0
 46
0.0
 47
0.0
 48
0.0
 49
0.0
140
0.0
141
0.0
142
1.0
143
1.0
 70
   688
 72
     0
 73
     0
 74
     5
  7

 75
    16
147
1.0
148
0.0
149
0.0
100
AcDbLayout
  1
Layout2
 70
     1
 71
     2
 10
0.0
 20
0.0
 11
0.0
 21
0.0
 12
0.0
 22
0.0
 32
0.0
 14
0.0
 24
0.0
 34
0.0
 15
0.0
 25
0.0
 35
0.0
146
0.0
 13
0.0
 23
0.0
 33
0.0
 16
1.0
 26
0.0
 36
0.0
 17
0.0
 27
1.0
 37
0.0
 76
     0
330
23
  0
LAYOUT
  5
22
102
{ACAD_REACTORS
330
1A
102
}
330
1A
100
AcDbPlotSettings
  1

  2
none_device
  4

  6

 40
0.0
 41
0.0
 42
0.0
 43
0.0
 44
0.0
 45
0.0
 46
0.0
 47
0.0
 48
0.0
 49
0.0
140
0.0
141
0.0
142
1.0
143
1.0
 70
  1712
 72
     0
 73
     0
 74
     0
  7

 75
     0
147
1.0
148
0.0
149
0.0
100
AcDbLayout
  1
Model
 70
     1
 71
     0
 10
0.0
 20
0.0
 11
12.0
 21
9.0
 12
0.0
 22
0.0
 32
0.0
 14
-210.0000000000001
 24
0.0
 34
0.0
 15
0.0
 25
297.0000000000001
 35
0.0
146
0.0
 13
0.0
 23
0.0
 33
0.0
 16
1.0
 26
0.0
 36
0.0
 17
0.0
 27
1.0
 37
0.0
 76
     0
330
1F
331
29
  0
MATERIAL
  5
3D
102
{ACAD_REACTORS
330
3B
102
}
102
{ACAD_XDICTIONARY
360
353
102
}
330
3B
100
AcDbMaterial
  1
ByBlock
  0
MATERIAL
  5
3C
102
{ACAD_REACTORS
330
3B
102
}
102
{ACAD_XDICTIONARY
360
351
102
}
330
3B
100
AcDbMaterial
  1
ByLayer
  0
MATERIAL
  5
3E
102
{ACAD_REACTORS
330
3B
102
}
102
{ACAD_XDICTIONARY
360
355
102
}
330
3B
100
AcDbMaterial
  1
Global
  0
MLINESTYLE
  5
18
102
{ACAD_REACTORS
330
17
102
}
330
17
100
AcDbMlineStyle
  2
Standard
 70
     0
  3

 62
   256
 51
90.0
 52
90.0
 71
     2
 49
0.5
 62
   256
  6
BYLAYER
 49
-0.5
 62
   256
  6
BYLAYER
  0
ACDBPLACEHOLDER
  5
F
102
{ACAD_REACTORS
330
E
102
}
330
E
  0
VISUALSTYLE
  5
2F
102
{ACAD_REACTORS
330
2A
102
}
102
{ACAD_XDICTIONARY
360
339
102
}
330
2A
100
AcDbVisualStyle
  2
2dWireframe
 70
     4
 71
     0
 72
     2
 73
     0
 90
        0
 40
-0.6
 41
-30.0
 62
     5
 63
     7
 74
     1
 91
        4
 64
     7
 65
   257
 75
     1
175
     1
 42
1.0
 92
        0
 66
   257
 43
1.0
 76
     1
 77
     6
 78
     2
 67
     7
 79
     5
170
     0
171
     0
290
     0
174
     0
 93
        1
 44
0.0
173
     0
291
     0
 45
0.0
1001
ACAD
1000
AcDbSavedByObjectVersion
1070
     0
  0
VISUALSTYLE
  5
31
102
{ACAD_REACTORS
330
2A
102
}
102
{ACAD_XDICTIONARY
360
33D
102
}
330
2A
100
AcDbVisualStyle
  2
3D Hidden
 70
     6
 71
     1
 72
     2
 73
     2
 90
        0
 40
-0.6
 41
-30.0
 62
     5
 63
     7
 74
     2
 91
        2
 64
     7
 65
   257
 75
     2
175
     1
 42
40.0
 92
        0
 66
   257
 43
1.0
 76
     1
 77
     6
 78
     2
 67
     7
 79
     3
170
     0
171
     0
290
     0
174
     0
 93
        1
 44
0.0
173
     0
291
     0
 45
0.0
1001
ACAD
1000
AcDbSavedByObjectVersion
1070
     0
  0
VISUALSTYLE
  5
30
102
{ACAD_REACTORS
330
2A
102
}
102
{ACAD_XDICTIONARY
360
33B
102
}
330
2A
100
AcDbVisualStyle
  2
3dWireframe
 70
     5
 71
     0
 72
     2
 73
     0
 90
        0
 40
-0.6
 41
-30.0
 62
     5
 63
     7
 74
     1
 91
        4
 64
     7
 65
   257
 75
     1
175
     1
 42
1.0
 92
        0
 66
   257
 43
1.0
 76
     1
 77
     6
 78
     2
 67
     7
 79
     5
170
     0
171
     0
290
     0
174
     0
 93
        1
 44
0.0
173
     0
291
     0
 45
0.0
1001
ACAD
1000
AcDbSavedByObjectVersion
1070
     0
  0
VISUALSTYLE
  5
32
102
{ACAD_REACTORS
330
2A
102
}
102
{ACAD_XDICTIONARY
360
33F
102
}
330
2A
100
AcDbVisualStyle
  2
Basic
 70
     7
 71
     1
 72
     0
 73
     1
 90
        0
 40
-0.6
 41
-30.0
 62
     5
 63
     7
 74
     0
 91
        4
 64
     7
 65
   257
 75
     1
175
     1
 42
1.0
 92
        8
 66
     7
 43
1.0
 76
     1
 77
     6
 78
     2
 67
     7
 79
     5
170
     0
171
     0
290
     0
174
     0
 93
        1
 44
0.0
173
     0
291
     1
 45
0.0
1001
ACAD
1000
AcDbSavedByObjectVersion
1070
     0
  0
VISUALSTYLE
  5
36
102
{ACAD_REACTORS
330
2A
102
}
102
{ACAD_XDICTIONARY
360
347
102
}
330
2A
100
AcDbVisualStyle
  2
Brighten
 70
    12
 71
     2
 72
     2
 73
     0
 90
        0
 40
-0.6
 41
-30.0
 62
     5
 63
     7
 74
     1
 91
        4
 64
     7
 65
   257
 75
     1
175
     1
 42
1.0
 92
        8
 66
     7
 43
1.0
 76
     1
 77
     6
 78
     2
 67
     7
 79
     5
170
     0
171
     0
290
     0
174
     0
 93
        1
 44
50.0
173
     0
291
     1
 45
0.0
1001
ACAD
1000
AcDbSavedByObjectVersion
1070
     0
  0
VISUALSTYLE
  5
3A
102
{ACAD_REACTORS
330
2A
102
}
102
{ACAD_XDICTIONARY
360
34F
102
}
330
2A
100
AcDbVisualStyle
  2
ColorChange
 70
    16
 71
     2
 72
     2
 73
     3
 90
        0
 40
-0.6
 41
-30.0
 62
     5
 63
     8
 74
     1
 91
        4
 64
     7
 65
   257
 75
     1
175
     1
 42
1.0
 92
        8
 66
     8
 43
1.0
 76
     1
 77
     6
 78
     2
 67
     7
 79
     5
170
     0
171
     0
290
     0
174
     0
 93
        1
 44
0.0
173
     0
291
     1
 45
0.0
1001
ACAD
1000
AcDbSavedByObjectVersion
1070
     0
  0
VISUALSTYLE
  5
34
102
{ACAD_REACTORS
330
2A
102
}
102
{ACAD_XDICTIONARY
360
343
102
}
330
2A
100
AcDbVisualStyle
  2
Conceptual
 70
     9
 71
     3
 72
     2
 73
     0
 90
        0
 40
-0.6
 41
-30.0
 62
     5
 63
     7
 74
     2
 91
        2
 64
     7
 65
   257
 75
     1
175
     1
 42
40.0
 92
        8
 66
     7
 43
1.0
 76
     1
 77
     6
 78
     2
 67
     7
 79
     3
170
     0
171
     0
290
     0
174
     0
 93
        1
 44
0.0
173
     0
291
     0
 45
0.0
1001
ACAD
1000
AcDbSavedByObjectVersion
1070
     0
  0
VISUALSTYLE
  5
35
102
{ACAD_REACTORS
330
2A
102
}
102
{ACAD_XDICTIONARY
360
345
102
}
330
2A
100
AcDbVisualStyle
  2
Dim
 70
    11
 71
     2
 72
     2
 73
     0
 90
        0
 40
-0.6
 41
-30.0
 62
     5
 63
     7
 74
     1
 91
        4
 64
     7
 65
   257
 75
     1
175
     1
 42
1.0
 92
        8
 66
     7
 43
1.0
 76
     1
 77
     6
 78
     2
 67
     7
 79
     5
170
     0
171
     0
290
     0
174
     0
 93
        1
 44
-50.0
173
     0
291
     1
 45
0.0
1001
ACAD
1000
AcDbSavedByObjectVersion
1070
     0
  0
VISUALSTYLE
  5
39
102
{ACAD_REACTORS
330
2A
102
}
102
{ACAD_XDICTIONARY
360
34D
102
}
330
2A
100
AcDbVisualStyle
  2
Facepattern
 70
    15
 71
     2
 72
     2
 73
     0
 90
        0
 40
-0.6
 41
-30.0
 62
     5
 63
     7
 74
     1
 91
        4
 64
     7
 65
   257
 75
     1
175
     1
 42
1.0
 92
        8
 66
     7
 43
1.0
 76
     1
 77
     6
 78
     2
 67
     7
 79
     5
170
     0
171
     0
290
     0
174
     0
 93
        1
 44
0.0
173
     0
291
     1
 45
0.0
1001
ACAD
1000
AcDbSavedByObjectVersion
1070
     0
  0
VISUALSTYLE
  5
2B
102
{ACAD_REACTORS
330
2A
102
}
102
{ACAD_XDICTIONARY
360
331
102
}
330
2A
100
AcDbVisualStyle
  2
Flat
 70
     0
 71
     2
 72
     1
 73
     1
 90
        2
 40
-0.6
 41
30.0
 62
     5
 63
     7
 74
     0
 91
        4
 64
     7
 65
   257
 75
     1
175
     1
 42
1.0
 92
        8
 66
     7
 43
1.0
 76
     1
 77
     6
 78
     2
 67
     7
 79
     5
170
     0
171
     0
290
     0
174
     0
 93
       13
 44
0.0
173
     0
291
     1
 45
0.0
1001
ACAD
1000
AcDbSavedByObjectVersion
1070
     0
  0
VISUALSTYLE
  5
2C
102
{ACAD_REACTORS
330
2A
102
}
102
{ACAD_XDICTIONARY
360
333
102
}
330
2A
100
AcDbVisualStyle
  2
FlatWithEdges
 70
     1
 71
     2
 72
     1
 73
     1
 90
        2
 40
-0.6
 41
30.0
 62
     5
 63
     7
 74
     1
 91
        4
 64
     7
 65
   257
 75
     1
175
     1
 42
1.0
 92
        0
 66
   257
 43
1.0
 76
     1
 77
     6
 78
     2
 67
     7
 79
     5
170
     0
171
     0
290
     0
174
     0
 93
       13
 44
0.0
173
     0
291
     1
 45
0.0
1001
ACAD
1000
AcDbSavedByObjectVersion
1070
     0
  0
VISUALSTYLE
  5
2D
102
{ACAD_REACTORS
330
2A
102
}
102
{ACAD_XDICTIONARY
360
335
102
}
330
2A
100
AcDbVisualStyle
  2
Gouraud
 70
     2
 71
     2
 72
     2
 73
     1
 90
        2
 40
-0.6
 41
30.0
 62
     5
 63
     7
 74
     0
 91
        4
 64
     7
 65
   257
 75
     1
175
     1
 42
1.0
 92
        0
 66
     7
 43
1.0
 76
     1
 77
     6
 78
     2
 67
     7
 79
     5
170
     0
171
     0
290
     0
174
     0
 93
       13
 44
0.0
173
     0
291
     1
 45
0.0
1001
ACAD
1000
AcDbSavedByObjectVersion
1070
     0
  0
VISUALSTYLE
  5
2E
102
{ACAD_REACTORS
330
2A
102
}
102
{ACAD_XDICTIONARY
360
337
102
}
330
2A
100
AcDbVisualStyle
  2
GouraudWithEdges
 70
     3
 71
     2
 72
     2
 73
     1
 90
        2
 40
-0.6
 41
30.0
 62
     5
 63
     7
 74
     1
 91
        4
 64
     7
 65
   257
 75
     1
175
     1
 42
1.0
 92
        0
 66
   257
 43
1.0
 76
     1
 77
     6
 78
     2
 67
     7
 79
     5
170
     0
171
     0
290
     0
174
     0
 93
       13
 44
0.0
173
     0
291
     1
 45
0.0
1001
ACAD
1000
AcDbSavedByObjectVersion
1070
     0
  0
VISUALSTYLE
  5
38
102
{ACAD_REACTORS
330
2A
102
}
102
{ACAD_XDICTIONARY
360
34B
102
}
330
2A
100
AcDbVisualStyle
  2
Linepattern
 70
    14
 71
     2
 72
     2
 73
     0
 90
        0
 40
-0.6
 41
-30.0
 62
     5
 63
     7
 74
     1
 91
        4
 64
     7
 65
   257
 75
     7
175
     7
 42
1.0
 92
        8
 66
     7
 43
1.0
 76
     1
 77
     6
 78
     2
 67
     7
 79
     5
170
     0
171
     0
290
     0
174
     0
 93
        1
 44
0.0
173
     0
291
     1
 45
0.0
1001
ACAD
1000
AcDbSavedByObjectVersion
1070
     0
  0
VISUALSTYLE
  5
33
102
{ACAD_REACTORS
330
2A
102
}
102
{ACAD_XDICTIONARY
360
341
102
}
330
2A
100
AcDbVisualStyle
  2
Realistic
 70
     8
 71
     2
 72
     2
 73
     0
 90
        0
 40
-0.6
 41
-30.0
 62
     5
 63
     7
 74
     1
 91
        0
 64
     7
 65
   257
 75
     1
175
     1
 42
1.0
 92
        8
 66
     8
 43
1.0
 76
     1
 77
     6
 78
     2
 67
     7
 79
     5
170
     0
171
     0
290
     0
174
     0
 93
       13
 44
0.0
173
     0
291
     0
 45
0.0
1001
ACAD
1000
AcDbSavedByObjectVersion
1070
     0
  0
VISUALSTYLE
  5
37
102
{ACAD_REACTORS
330
2A
102
}
102
{ACAD_XDICTIONARY
360
349
102
}
330
2A
100
AcDbVisualStyle
  2
Thicken
 70
    13
 71
     2
 72
     2
 73
     0
 90
        0
 40
-0.6
 41
-30.0
 62
     5
 63
     7
 74
     1
 91
        4
 64
     7
 65
   257
 75
     1
175
     1
 42
1.0
 92
       12
 66
     7
 43
1.0
 76
     1
 77
     6
 78
     2
 67
     7
 79
     5
170
     0
171
     0
290
     0
174
     0
 93
        1
 44
0.0
173
     0
291
     1
 45
0.0
1001
ACAD
1000
AcDbSavedByObjectVersion
1070
     0
  0
DICTIONARYVAR
  5
32F
102
{ACAD_REACTORS
330
32C
102
}
330
32C
100
DictionaryVariables
280
     0
  1
2
  0
DICTIONARYVAR
  5
330
102
{ACAD_REACTORS
330
32C
102
}
330
32C
100
DictionaryVariables
280
     0
  1
1
  0
DICTIONARY
  5
353
330
3D
100
AcDbDictionary
280
     1
281
     1
  3
ACAD_XREC_ROUNDTRIP
360
354
  0
DICTIONARY
  5
351
330
3C
100
AcDbDictionary
280
     1
281
     1
  3
ACAD_XREC_ROUNDTRIP
360
352
  0
DICTIONARY
  5
355
330
3E
100
AcDbDictionary
280
     1
281
     1
  3
ACAD_XREC_ROUNDTRIP
360
356
  0
DICTIONARY
  5
339
330
2F
100
AcDbDictionary
280
     1
281
     1
  3
ACAD_XREC_ROUNDTRIP
360
33A
  0
DICTIONARY
  5
33D
330
31
100
AcDbDictionary
280
     1
281
     1
  3
ACAD_XREC_ROUNDTRIP
360
33E
  0
DICTIONARY
  5
33B
330
30
100
AcDbDictionary
280
     1
281
     1
  3
ACAD_XREC_ROUNDTRIP
360
33C
  0
DICTIONARY
  5
33F
330
32
100
AcDbDictionary
280
     1
281
     1
  3
ACAD_XREC_ROUNDTRIP
360
340
  0
DICTIONARY
  5
347
330
36
100
AcDbDictionary
280
     1
281
     1
  3
ACAD_XREC_ROUNDTRIP
360
348
  0
DICTIONARY
  5
34F
330
3A
100
AcDbDictionary
280
     1
281
     1
  3
ACAD_XREC_ROUNDTRIP
360
350
  0
DICTIONARY
  5
343
330
34
100
AcDbDictionary
280
     1
281
     1
  3
ACAD_XREC_ROUNDTRIP
360
344
  0
DICTIONARY
  5
345
330
35
100
AcDbDictionary
280
     1
281
     1
  3
ACAD_XREC_ROUNDTRIP
360
346
  0
DICTIONARY
  5
34D
330
39
100
AcDbDictionary
280
     1
281
     1
  3
ACAD_XREC_ROUNDTRIP
360
34E
  0
DICTIONARY
  5
331
330
2B
100
AcDbDictionary
280
     1
281
     1
  3
ACAD_XREC_ROUNDTRIP
360
332
  0
DICTIONARY
  5
333
330
2C
100
AcDbDictionary
280
     1
281
     1
  3
ACAD_XREC_ROUNDTRIP
360
334
  0
DICTIONARY
  5
335
330
2D
100
AcDbDictionary
280
     1
281
     1
  3
ACAD_XREC_ROUNDTRIP
360
336
  0
DICTIONARY
  5
337
330
2E
100
AcDbDictionary
280
     1
281
     1
  3
ACAD_XREC_ROUNDTRIP
360
338
  0
DICTIONARY
  5
34B
330
38
100
AcDbDictionary
280
     1
281
     1
  3
ACAD_XREC_ROUNDTRIP
360
34C
  0
DICTIONARY
  5
341
330
33
100
AcDbDictionary
280
     1
281
     1
  3
ACAD_XREC_ROUNDTRIP
360
342
  0
DICTIONARY
  5
349
330
37
100
AcDbDictionary
280
     1
281
     1
  3
ACAD_XREC_ROUNDTRIP
360
34A
  0
XRECORD
  5
354
102
{ACAD_REACTORS
330
353
102
}
330
353
100
AcDbXrecord
280
     1
102
MATERIAL
148
0.0
149
0.0
149
0.0
 93
        0
 94
      127
282
     0
 72
     1
 77
     1
171
     1
175
     1
179
     1
273
     0
  0
XRECORD
  5
352
102
{ACAD_REACTORS
330
351
102
}
330
351
100
AcDbXrecord
280
     1
102
MATERIAL
148
0.0
149
0.0
149
0.0
 93
        0
 94
      127
282
     0
 72
     1
 77
     1
171
     1
175
     1
179
     1
273
     0
  0
XRECORD
  5
356
102
{ACAD_REACTORS
330
355
102
}
330
355
100
AcDbXrecord
280
     1
102
MATERIAL
148
0.0
149
0.0
149
0.0
 93
        0
 94
      127
282
     0
 72
     1
 77
     1
171
     1
175
     1
179
     1
273
     0
  0
XRECORD
  5
33A
102
{ACAD_REACTORS
330
339
102
}
330
339
100
AcDbXrecord
280
     1
102
RTVSPropertyOp0
 70
     1
102
RTVSPropertyOp1
 70
     1
102
RTVSPropertyOp2
 70
     1
102
RTVSPropertyOp3
 70
     1
102
RTVSPropertyOp4
 70
     1
102
RTVSPropertyOp5
 70
     1
102
RTVSPropertyOp6
 70
     1
102
RTVSPropertyOp7
 70
     1
102
RTVSPropertyOp8
 70
     1
102
RTVSPropertyOp9
 70
     1
102
RTVSPropertyOp10
 70
     1
102
RTVSPropertyOp11
 70
     1
102
RTVSPropertyOp12
 70
     1
102
RTVSPropertyOp13
 70
     1
102
RTVSPropertyOp14
 70
     1
102
RTVSPropertyOp15
 70
     1
102
RTVSPropertyOp16
 70
     1
102
RTVSPropertyOp17
 70
     1
102
RTVSPropertyOp18
 70
     1
102
RTVSPropertyOp19
 70
     1
102
RTVSPropertyOp20
 70
     1
102
RTVSPropertyOp21
 70
     1
102
RTVSPropertyOp22
 70
     1
102
RTVSPropertyOp23
 70
     1
102
RTVSPropertyOp24
 70
     1
102
RTVSPropertyOp25
 70
     1
102
RTVSPropertyOp26
 70
     1
102
RTVSPropertyOp27
 70
     1
102
RTVSPropertyOp28
 70
     1
102
RTVSPropertyOp29
 70
     1
102
RTVSPropertyOp30
 70
     1
102
RTVSPropertyOp31
 70
     1
102
RTVSPropertyOp32
 70
     1
  0
XRECORD
  5
33E
102
{ACAD_REACTORS
330
33D
102
}
330
33D
100
AcDbXrecord
280
     1
102
RTVSPropertyOp0
 70
     1
102
RTVSPropertyOp1
 70
     1
102
RTVSPropertyOp2
 70
     1
102
RTVSPropertyOp3
 70
     1
102
RTVSPropertyOp4
 70
     1
102
RTVSPropertyOp5
 70
     1
102
RTVSPropertyOp6
 70
     1
102
RTVSPropertyOp7
 70
     1
102
RTVSPropertyOp8
 70
     1
102
RTVSPropertyOp9
 70
     1
102
RTVSPropertyOp10
 70
     1
102
RTVSPropertyOp11
 70
     1
102
RTVSPropertyOp12
 70
     1
102
RTVSPropertyOp13
 70
     1
102
RTVSPropertyOp14
 70
     1
102
RTVSPropertyOp15
 70
     1
102
RTVSPropertyOp16
 70
     1
102
RTVSPropertyOp17
 70
     1
102
RTVSPropertyOp18
 70
     1
102
RTVSPropertyOp19
 70
     1
102
RTVSPropertyOp20
 70
     1
102
RTVSPropertyOp21
 70
     1
102
RTVSPropertyOp22
 70
     1
102
RTVSPropertyOp23
 70
     1
102
RTVSPropertyOp24
 70
     1
102
RTVSPropertyOp25
 70
     1
102
RTVSPropertyOp26
 70
     1
102
RTVSPropertyOp27
 70
     1
102
RTVSPropertyOp28
 70
     1
102
RTVSPropertyOp29
 70
     1
102
RTVSPropertyOp30
 70
     1
102
RTVSPropertyOp31
 70
     1
102
RTVSPropertyOp32
 70
     1
  0
XRECORD
  5
33C
102
{ACAD_REACTORS
330
33B
102
}
330
33B
100
AcDbXrecord
280
     1
102
RTVSPropertyOp0
 70
     1
102
RTVSPropertyOp1
 70
     1
102
RTVSPropertyOp2
 70
     1
102
RTVSPropertyOp3
 70
     1
102
RTVSPropertyOp4
 70
     1
102
RTVSPropertyOp5
 70
     1
102
RTVSPropertyOp6
 70
     1
102
RTVSPropertyOp7
 70
     1
102
RTVSPropertyOp8
 70
     1
102
RTVSPropertyOp9
 70
     1
102
RTVSPropertyOp10
 70
     1
102
RTVSPropertyOp11
 70
     1
102
RTVSPropertyOp12
 70
     1
102
RTVSPropertyOp13
 70
     1
102
RTVSPropertyOp14
 70
     1
102
RTVSPropertyOp15
 70
     1
102
RTVSPropertyOp16
 70
     1
102
RTVSPropertyOp17
 70
     1
102
RTVSPropertyOp18
 70
     1
102
RTVSPropertyOp19
 70
     1
102
RTVSPropertyOp20
 70
     1
102
RTVSPropertyOp21
 70
     1
102
RTVSPropertyOp22
 70
     1
102
RTVSPropertyOp23
 70
     1
102
RTVSPropertyOp24
 70
     1
102
RTVSPropertyOp25
 70
     1
102
RTVSPropertyOp26
 70
     1
102
RTVSPropertyOp27
 70
     1
102
RTVSPropertyOp28
 70
     1
102
RTVSPropertyOp29
 70
     1
102
RTVSPropertyOp30
 70
     1
102
RTVSPropertyOp31
 70
     1
102
RTVSPropertyOp32
 70
     1
  0
XRECORD
  5
340
102
{ACAD_REACTORS
330
33F
102
}
330
33F
100
AcDbXrecord
280
     1
102
RTVSPropertyOp0
 70
     1
102
RTVSPropertyOp1
 70
     1
102
RTVSPropertyOp2
 70
     1
102
RTVSPropertyOp3
 70
     1
102
RTVSPropertyOp4
 70
     1
102
RTVSPropertyOp5
 70
     1
102
RTVSPropertyOp6
 70
     1
102
RTVSPropertyOp7
 70
     1
102
RTVSPropertyOp8
 70
     1
102
RTVSPropertyOp9
 70
     1
102
RTVSPropertyOp10
 70
     1
102
RTVSPropertyOp11
 70
     1
102
RTVSPropertyOp12
 70
     1
102
RTVSPropertyOp13
 70
     1
102
RTVSPropertyOp14
 70
     1
102
RTVSPropertyOp15
 70
     1
102
RTVSPropertyOp16
 70
     1
102
RTVSPropertyOp17
 70
     1
102
RTVSPropertyOp18
 70
     1
102
RTVSPropertyOp19
 70
     1
102
RTVSPropertyOp20
 70
     1
102
RTVSPropertyOp21
 70
     1
102
RTVSPropertyOp22
 70
     1
102
RTVSPropertyOp23
 70
     1
102
RTVSPropertyOp24
 70
     1
102
RTVSPropertyOp25
 70
     1
102
RTVSPropertyOp26
 70
     1
102
RTVSPropertyOp27
 70
     1
102
RTVSPropertyOp28
 70
     1
102
RTVSPropertyOp29
 70
     1
102
RTVSPropertyOp30
 70
     1
102
RTVSPropertyOp31
 70
     1
102
RTVSPropertyOp32
 70
     1
  0
XRECORD
  5
348
102
{ACAD_REACTORS
330
347
102
}
330
347
100
AcDbXrecord
280
     1
102
RTVSPropertyOp0
 70
     1
102
RTVSPropertyOp1
 70
     1
102
RTVSPropertyOp2
 70
     1
102
RTVSPropertyOp3
 70
     1
102
RTVSPropertyOp4
 70
     1
102
RTVSPropertyOp5
 70
     1
102
RTVSPropertyOp6
 70
     1
102
RTVSPropertyOp7
 70
     1
102
RTVSPropertyOp8
 70
     1
102
RTVSPropertyOp9
 70
     1
102
RTVSPropertyOp10
 70
     1
102
RTVSPropertyOp11
 70
     1
102
RTVSPropertyOp12
 70
     1
102
RTVSPropertyOp13
 70
     1
102
RTVSPropertyOp14
 70
     1
102
RTVSPropertyOp15
 70
     1
102
RTVSPropertyOp16
 70
     1
102
RTVSPropertyOp17
 70
     1
102
RTVSPropertyOp18
 70
     1
102
RTVSPropertyOp19
 70
     1
102
RTVSPropertyOp20
 70
     1
102
RTVSPropertyOp21
 70
     1
102
RTVSPropertyOp22
 70
     1
102
RTVSPropertyOp23
 70
     1
102
RTVSPropertyOp24
 70
     1
102
RTVSPropertyOp25
 70
     1
102
RTVSPropertyOp26
 70
     1
102
RTVSPropertyOp27
 70
     1
102
RTVSPropertyOp28
 70
     1
102
RTVSPropertyOp29
 70
     1
102
RTVSPropertyOp30
 70
     1
102
RTVSPropertyOp31
 70
     1
102
RTVSPropertyOp32
 70
     1
  0
XRECORD
  5
350
102
{ACAD_REACTORS
330
34F
102
}
330
34F
100
AcDbXrecord
280
     1
102
RTVSPropertyOp0
 70
     1
102
RTVSPropertyOp1
 70
     1
102
RTVSPropertyOp2
 70
     1
102
RTVSPropertyOp3
 70
     1
102
RTVSPropertyOp4
 70
     1
102
RTVSPropertyOp5
 70
     1
102
RTVSPropertyOp6
 70
     1
102
RTVSPropertyOp7
 70
     1
102
RTVSPropertyOp8
 70
     1
102
RTVSPropertyOp9
 70
     1
102
RTVSPropertyOp10
 70
     1
102
RTVSPropertyOp11
 70
     1
102
RTVSPropertyOp12
 70
     1
102
RTVSPropertyOp13
 70
     1
102
RTVSPropertyOp14
 70
     1
102
RTVSPropertyOp15
 70
     1
102
RTVSPropertyOp16
 70
     1
102
RTVSPropertyOp17
 70
     1
102
RTVSPropertyOp18
 70
     1
102
RTVSPropertyOp19
 70
     1
102
RTVSPropertyOp20
 70
     1
102
RTVSPropertyOp21
 70
     1
102
RTVSPropertyOp22
 70
     1
102
RTVSPropertyOp23
 70
     1
102
RTVSPropertyOp24
 70
     1
102
RTVSPropertyOp25
 70
     1
102
RTVSPropertyOp26
 70
     1
102
RTVSPropertyOp27
 70
     1
102
RTVSPropertyOp28
 70
     1
102
RTVSPropertyOp29
 70
     1
102
RTVSPropertyOp30
 70
     1
102
RTVSPropertyOp31
 70
     1
102
RTVSPropertyOp32
 70
     1
  0
XRECORD
  5
344
102
{ACAD_REACTORS
330
343
102
}
330
343
100
AcDbXrecord
280
     1
102
RTVSPropertyOp0
 70
     1
102
RTVSPropertyOp1
 70
     1
102
RTVSPropertyOp2
 70
     1
102
RTVSPropertyOp3
 70
     1
102
RTVSPropertyOp4
 70
     1
102
RTVSPropertyOp5
 70
     1
102
RTVSPropertyOp6
 70
     1
102
RTVSPropertyOp7
 70
     1
102
RTVSPropertyOp8
 70
     1
102
RTVSPropertyOp9
 70
     1
102
RTVSPropertyOp10
 70
     1
102
RTVSPropertyOp11
 70
     1
102
RTVSPropertyOp12
 70
     1
102
RTVSPropertyOp13
 70
     1
102
RTVSPropertyOp14
 70
     1
102
RTVSPropertyOp15
 70
     1
102
RTVSPropertyOp16
 70
     1
102
RTVSPropertyOp17
 70
     1
102
RTVSPropertyOp18
 70
     1
102
RTVSPropertyOp19
 70
     1
102
RTVSPropertyOp20
 70
     1
102
RTVSPropertyOp21
 70
     1
102
RTVSPropertyOp22
 70
     1
102
RTVSPropertyOp23
 70
     1
102
RTVSPropertyOp24
 70
     1
102
RTVSPropertyOp25
 70
     1
102
RTVSPropertyOp26
 70
     1
102
RTVSPropertyOp27
 70
     1
102
RTVSPropertyOp28
 70
     1
102
RTVSPropertyOp29
 70
     1
102
RTVSPropertyOp30
 70
     1
102
RTVSPropertyOp31
 70
     1
102
RTVSPropertyOp32
 70
     1
  0
XRECORD
  5
346
102
{ACAD_REACTORS
330
345
102
}
330
345
100
AcDbXrecord
280
     1
102
RTVSPropertyOp0
 70
     1
102
RTVSPropertyOp1
 70
     1
102
RTVSPropertyOp2
 70
     1
102
RTVSPropertyOp3
 70
     1
102
RTVSPropertyOp4
 70
     1
102
RTVSPropertyOp5
 70
     1
102
RTVSPropertyOp6
 70
     1
102
RTVSPropertyOp7
 70
     1
102
RTVSPropertyOp8
 70
     1
102
RTVSPropertyOp9
 70
     1
102
RTVSPropertyOp10
 70
     1
102
RTVSPropertyOp11
 70
     1
102
RTVSPropertyOp12
 70
     1
102
RTVSPropertyOp13
 70
     1
102
RTVSPropertyOp14
 70
     1
102
RTVSPropertyOp15
 70
     1
102
RTVSPropertyOp16
 70
     1
102
RTVSPropertyOp17
 70
     1
102
RTVSPropertyOp18
 70
     1
102
RTVSPropertyOp19
 70
     1
102
RTVSPropertyOp20
 70
     1
102
RTVSPropertyOp21
 70
     1
102
RTVSPropertyOp22
 70
     1
102
RTVSPropertyOp23
 70
     1
102
RTVSPropertyOp24
 70
     1
102
RTVSPropertyOp25
 70
     1
102
RTVSPropertyOp26
 70
     1
102
RTVSPropertyOp27
 70
     1
102
RTVSPropertyOp28
 70
     1
102
RTVSPropertyOp29
 70
     1
102
RTVSPropertyOp30
 70
     1
102
RTVSPropertyOp31
 70
     1
102
RTVSPropertyOp32
 70
     1
  0
XRECORD
  5
34E
102
{ACAD_REACTORS
330
34D
102
}
330
34D
100
AcDbXrecord
280
     1
102
RTVSPropertyOp0
 70
     1
102
RTVSPropertyOp1
 70
     1
102
RTVSPropertyOp2
 70
     1
102
RTVSPropertyOp3
 70
     1
102
RTVSPropertyOp4
 70
     1
102
RTVSPropertyOp5
 70
     1
102
RTVSPropertyOp6
 70
     1
102
RTVSPropertyOp7
 70
     1
102
RTVSPropertyOp8
 70
     1
102
RTVSPropertyOp9
 70
     1
102
RTVSPropertyOp10
 70
     1
102
RTVSPropertyOp11
 70
     1
102
RTVSPropertyOp12
 70
     1
102
RTVSPropertyOp13
 70
     1
102
RTVSPropertyOp14
 70
     1
102
RTVSPropertyOp15
 70
     1
102
RTVSPropertyOp16
 70
     1
102
RTVSPropertyOp17
 70
     1
102
RTVSPropertyOp18
 70
     1
102
RTVSPropertyOp19
 70
     1
102
RTVSPropertyOp20
 70
     1
102
RTVSPropertyOp21
 70
     1
102
RTVSPropertyOp22
 70
     1
102
RTVSPropertyOp23
 70
     1
102
RTVSPropertyOp24
 70
     1
102
RTVSPropertyOp25
 70
     1
102
RTVSPropertyOp26
 70
     1
102
RTVSPropertyOp27
 70
     1
102
RTVSPropertyOp28
 70
     1
102
RTVSPropertyOp29
 70
     1
102
RTVSPropertyOp30
 70
     1
102
RTVSPropertyOp31
 70
     1
102
RTVSPropertyOp32
 70
     1
  0
XRECORD
  5
332
102
{ACAD_REACTORS
330
331
102
}
330
331
100
AcDbXrecord
280
     1
102
RTVSPropertyOp0
 70
     1
102
RTVSPropertyOp1
 70
     1
102
RTVSPropertyOp2
 70
     1
102
RTVSPropertyOp3
 70
     1
102
RTVSPropertyOp4
 70
     1
102
RTVSPropertyOp5
 70
     1
102
RTVSPropertyOp6
 70
     1
102
RTVSPropertyOp7
 70
     1
102
RTVSPropertyOp8
 70
     1
102
RTVSPropertyOp9
 70
     1
102
RTVSPropertyOp10
 70
     1
102
RTVSPropertyOp11
 70
     1
102
RTVSPropertyOp12
 70
     1
102
RTVSPropertyOp13
 70
     1
102
RTVSPropertyOp14
 70
     1
102
RTVSPropertyOp15
 70
     1
102
RTVSPropertyOp16
 70
     1
102
RTVSPropertyOp17
 70
     1
102
RTVSPropertyOp18
 70
     1
102
RTVSPropertyOp19
 70
     1
102
RTVSPropertyOp20
 70
     1
102
RTVSPropertyOp21
 70
     1
102
RTVSPropertyOp22
 70
     1
102
RTVSPropertyOp23
 70
     1
102
RTVSPropertyOp24
 70
     1
102
RTVSPropertyOp25
 70
     1
102
RTVSPropertyOp26
 70
     1
102
RTVSPropertyOp27
 70
     1
102
RTVSPropertyOp28
 70
     1
102
RTVSPropertyOp29
 70
     1
102
RTVSPropertyOp30
 70
     1
102
RTVSPropertyOp31
 70
     1
102
RTVSPropertyOp32
 70
     1
  0
XRECORD
  5
334
102
{ACAD_REACTORS
330
333
102
}
330
333
100
AcDbXrecord
280
     1
102
RTVSPropertyOp0
 70
     1
102
RTVSPropertyOp1
 70
     1
102
RTVSPropertyOp2
 70
     1
102
RTVSPropertyOp3
 70
     1
102
RTVSPropertyOp4
 70
     1
102
RTVSPropertyOp5
 70
     1
102
RTVSPropertyOp6
 70
     1
102
RTVSPropertyOp7
 70
     1
102
RTVSPropertyOp8
 70
     1
102
RTVSPropertyOp9
 70
     1
102
RTVSPropertyOp10
 70
     1
102
RTVSPropertyOp11
 70
     1
102
RTVSPropertyOp12
 70
     1
102
RTVSPropertyOp13
 70
     1
102
RTVSPropertyOp14
 70
     1
102
RTVSPropertyOp15
 70
     1
102
RTVSPropertyOp16
 70
     1
102
RTVSPropertyOp17
 70
     1
102
RTVSPropertyOp18
 70
     1
102
RTVSPropertyOp19
 70
     1
102
RTVSPropertyOp20
 70
     1
102
RTVSPropertyOp21
 70
     1
102
RTVSPropertyOp22
 70
     1
102
RTVSPropertyOp23
 70
     1
102
RTVSPropertyOp24
 70
     1
102
RTVSPropertyOp25
 70
     1
102
RTVSPropertyOp26
 70
     1
102
RTVSPropertyOp27
 70
     1
102
RTVSPropertyOp28
 70
     1
102
RTVSPropertyOp29
 70
     1
102
RTVSPropertyOp30
 70
     1
102
RTVSPropertyOp31
 70
     1
102
RTVSPropertyOp32
 70
     1
  0
XRECORD
  5
336
102
{ACAD_REACTORS
330
335
102
}
330
335
100
AcDbXrecord
280
     1
102
RTVSPropertyOp0
 70
     1
102
RTVSPropertyOp1
 70
     1
102
RTVSPropertyOp2
 70
     1
102
RTVSPropertyOp3
 70
     1
102
RTVSPropertyOp4
 70
     1
102
RTVSPropertyOp5
 70
     1
102
RTVSPropertyOp6
 70
     1
102
RTVSPropertyOp7
 70
     1
102
RTVSPropertyOp8
 70
     1
102
RTVSPropertyOp9
 70
     1
102
RTVSPropertyOp10
 70
     1
102
RTVSPropertyOp11
 70
     1
102
RTVSPropertyOp12
 70
     1
102
RTVSPropertyOp13
 70
     1
102
RTVSPropertyOp14
 70
     1
102
RTVSPropertyOp15
 70
     1
102
RTVSPropertyOp16
 70
     1
102
RTVSPropertyOp17
 70
     1
102
RTVSPropertyOp18
 70
     1
102
RTVSPropertyOp19
 70
     1
102
RTVSPropertyOp20
 70
     1
102
RTVSPropertyOp21
 70
     1
102
RTVSPropertyOp22
 70
     1
102
RTVSPropertyOp23
 70
     1
102
RTVSPropertyOp24
 70
     1
102
RTVSPropertyOp25
 70
     1
102
RTVSPropertyOp26
 70
     1
102
RTVSPropertyOp27
 70
     1
102
RTVSPropertyOp28
 70
     1
102
RTVSPropertyOp29
 70
     1
102
RTVSPropertyOp30
 70
     1
102
RTVSPropertyOp31
 70
     1
102
RTVSPropertyOp32
 70
     1
  0
XRECORD
  5
338
102
{ACAD_REACTORS
330
337
102
}
330
337
100
AcDbXrecord
280
     1
102
RTVSPropertyOp0
 70
     1
102
RTVSPropertyOp1
 70
     1
102
RTVSPropertyOp2
 70
     1
102
RTVSPropertyOp3
 70
     1
102
RTVSPropertyOp4
 70
     1
102
RTVSPropertyOp5
 70
     1
102
RTVSPropertyOp6
 70
     1
102
RTVSPropertyOp7
 70
     1
102
RTVSPropertyOp8
 70
     1
102
RTVSPropertyOp9
 70
     1
102
RTVSPropertyOp10
 70
     1
102
RTVSPropertyOp11
 70
     1
102
RTVSPropertyOp12
 70
     1
102
RTVSPropertyOp13
 70
     1
102
RTVSPropertyOp14
 70
     1
102
RTVSPropertyOp15
 70
     1
102
RTVSPropertyOp16
 70
     1
102
RTVSPropertyOp17
 70
     1
102
RTVSPropertyOp18
 70
     1
102
RTVSPropertyOp19
 70
     1
102
RTVSPropertyOp20
 70
     1
102
RTVSPropertyOp21
 70
     1
102
RTVSPropertyOp22
 70
     1
102
RTVSPropertyOp23
 70
     1
102
RTVSPropertyOp24
 70
     1
102
RTVSPropertyOp25
 70
     1
102
RTVSPropertyOp26
 70
     1
102
RTVSPropertyOp27
 70
     1
102
RTVSPropertyOp28
 70
     1
102
RTVSPropertyOp29
 70
     1
102
RTVSPropertyOp30
 70
     1
102
RTVSPropertyOp31
 70
     1
102
RTVSPropertyOp32
 70
     1
  0
XRECORD
  5
34C
102
{ACAD_REACTORS
330
34B
102
}
330
34B
100
AcDbXrecord
280
     1
102
RTVSPropertyOp0
 70
     1
102
RTVSPropertyOp1
 70
     1
102
RTVSPropertyOp2
 70
     1
102
RTVSPropertyOp3
 70
     1
102
RTVSPropertyOp4
 70
     1
102
RTVSPropertyOp5
 70
     1
102
RTVSPropertyOp6
 70
     1
102
RTVSPropertyOp7
 70
     1
102
RTVSPropertyOp8
 70
     1
102
RTVSPropertyOp9
 70
     1
102
RTVSPropertyOp10
 70
     1
102
RTVSPropertyOp11
 70
     1
102
RTVSPropertyOp12
 70
     1
102
RTVSPropertyOp13
 70
     1
102
RTVSPropertyOp14
 70
     1
102
RTVSPropertyOp15
 70
     1
102
RTVSPropertyOp16
 70
     1
102
RTVSPropertyOp17
 70
     1
102
RTVSPropertyOp18
 70
     1
102
RTVSPropertyOp19
 70
     1
102
RTVSPropertyOp20
 70
     1
102
RTVSPropertyOp21
 70
     1
102
RTVSPropertyOp22
 70
     1
102
RTVSPropertyOp23
 70
     1
102
RTVSPropertyOp24
 70
     1
102
RTVSPropertyOp25
 70
     1
102
RTVSPropertyOp26
 70
     1
102
RTVSPropertyOp27
 70
     1
102
RTVSPropertyOp28
 70
     1
102
RTVSPropertyOp29
 70
     1
102
RTVSPropertyOp30
 70
     1
102
RTVSPropertyOp31
 70
     1
102
RTVSPropertyOp32
 70
     1
  0
XRECORD
  5
342
102
{ACAD_REACTORS
330
341
102
}
330
341
100
AcDbXrecord
280
     1
102
RTVSPropertyOp0
 70
     1
102
RTVSPropertyOp1
 70
     1
102
RTVSPropertyOp2
 70
     1
102
RTVSPropertyOp3
 70
     1
102
RTVSPropertyOp4
 70
     1
102
RTVSPropertyOp5
 70
     1
102
RTVSPropertyOp6
 70
     1
102
RTVSPropertyOp7
 70
     1
102
RTVSPropertyOp8
 70
     1
102
RTVSPropertyOp9
 70
     1
102
RTVSPropertyOp10
 70
     1
102
RTVSPropertyOp11
 70
     1
102
RTVSPropertyOp12
 70
     1
102
RTVSPropertyOp13
 70
     1
102
RTVSPropertyOp14
 70
     1
102
RTVSPropertyOp15
 70
     1
102
RTVSPropertyOp16
 70
     1
102
RTVSPropertyOp17
 70
     1
102
RTVSPropertyOp18
 70
     1
102
RTVSPropertyOp19
 70
     1
102
RTVSPropertyOp20
 70
     1
102
RTVSPropertyOp21
 70
     1
102
RTVSPropertyOp22
 70
     1
102
RTVSPropertyOp23
 70
     1
102
RTVSPropertyOp24
 70
     1
102
RTVSPropertyOp25
 70
     1
102
RTVSPropertyOp26
 70
     1
102
RTVSPropertyOp27
 70
     1
102
RTVSPropertyOp28
 70
     1
102
RTVSPropertyOp29
 70
     1
102
RTVSPropertyOp30
 70
     1
102
RTVSPropertyOp31
 70
     1
102
RTVSPropertyOp32
 70
     1
  0
XRECORD
  5
34A
102
{ACAD_REACTORS
330
349
102
}
330
349
100
AcDbXrecord
280
     1
102
RTVSPropertyOp0
 70
     1
102
RTVSPropertyOp1
 70
     1
102
RTVSPropertyOp2
 70
     1
102
RTVSPropertyOp3
 70
     1
102
RTVSPropertyOp4
 70
     1
102
RTVSPropertyOp5
 70
     1
102
RTVSPropertyOp6
 70
     1
102
RTVSPropertyOp7
 70
     1
102
RTVSPropertyOp8
 70
     1
102
RTVSPropertyOp9
 70
     1
102
RTVSPropertyOp10
 70
     1
102
RTVSPropertyOp11
 70
     1
102
RTVSPropertyOp12
 70
     1
102
RTVSPropertyOp13
 70
     1
102
RTVSPropertyOp14
 70
     1
102
RTVSPropertyOp15
 70
     1
102
RTVSPropertyOp16
 70
     1
102
RTVSPropertyOp17
 70
     1
102
RTVSPropertyOp18
 70
     1
102
RTVSPropertyOp19
 70
     1
102
RTVSPropertyOp20
 70
     1
102
RTVSPropertyOp21
 70
     1
102
RTVSPropertyOp22
 70
     1
102
RTVSPropertyOp23
 70
     1
102
RTVSPropertyOp24
 70
     1
102
RTVSPropertyOp25
 70
     1
102
RTVSPropertyOp26
 70
     1
102
RTVSPropertyOp27
 70
     1
102
RTVSPropertyOp28
 70
     1
102
RTVSPropertyOp29
 70
     1
102
RTVSPropertyOp30
 70
     1
102
RTVSPropertyOp31
 70
     1
102
RTVSPropertyOp32
 70
     1
  0
ENDSEC
  0
EOF
